[TR24][OF] Jessie J - This Christmas Day - 2018 (Pop)

 Статистика раздачи 
Размер: 409.68 МБ   |  Зарегистрирован: 26 окт 2018, 15:18   |   .torrent скачан: 0 раз
Сидеров: 0  [ 0 байт/сек ]     Личеров: 0  [ 0 байт/сек ]  
  
Аватара пользователя
Главный редактор
Главный редактор
 
Раздал: 90.01 ТБ
Скачал: 3.78 ТБ
Ратио: 24.248
Сообщения: 274043
Стаж: 9 лет 1 месяц 16 дней
Откуда: Санкт-Петербург
СообщениеДобавлено: 26 окт 2018, 15:18


Jessie J - This Christmas Day


Формат записи/Источник записи: [TR24][OF]
Наличие водяных знаков: Нет
Год издания/переиздания диска: 2018
Жанр: Pop
Издатель (лейбл): Republic Records
Продолжительность: 00:35:01
Наличие сканов в содержимом раздачи: Только обложка альбома
Контейнер: FLAC (*.flac)
Тип рипа: tracks
Разрядность: 24/44,1
Формат: PCM
Количество каналов: 2.0
Источник (релизер): qobuz.com
Треклист:
1. Santa Claus Is Comin' to Town
2. Man With the Bag
3. Rockin' Around the Christmas Tree
4. Jingle Bell Rock
5. Rudolph the Red-nosed Reindeer/Jingle Bells
6. Let It Snow
7. Winter Wonderland (Feat. Boyz II Men)
8. The Christmas Song (Feat. Babyface)
9. This Christmas Day
10. White Christmas
11. Silent Night
Код: Выделить всё
foobar2000 1.4 / Dynamic Range Meter 1.1.1
log date: 2018-10-26 19:04:42
--------------------------------------------------------------------------------
Analyzed: Jessie J / This Christmas Day
--------------------------------------------------------------------------------
DR         Peak         RMS     Duration Track
--------------------------------------------------------------------------------
DR5       -0.20 dB    -7.62 dB      3:07 01-Santa Claus Is Comin' to Town
DR6       -0.20 dB    -7.78 dB      2:44 02-Man With the Bag
DR5       -0.20 dB    -6.98 dB      2:19 03-Rockin' Around the Christmas Tree
DR5       -0.20 dB    -7.08 dB      2:39 04-Jingle Bell Rock
DR7       -0.20 dB    -9.64 dB      4:22 05-Rudolph the Red-nosed Reindeer_Jingle Bells
DR8       -0.20 dB   -10.45 dB      2:05 06-Let It Snow
DR8       -0.20 dB    -9.79 dB      2:43 07-Winter Wonderland (Feat. Boyz II Men)
DR6       -0.20 dB    -8.20 dB      4:05 08-The Christmas Song (Feat. Babyface)
DR5       -0.20 dB    -8.33 dB      3:45 09-This Christmas Day
DR9       -0.20 dB   -11.90 dB      3:26 10-White Christmas
DR6       -0.20 dB   -10.15 dB      3:48 11-Silent Night
--------------------------------------------------------------------------------
Number of tracks:  11
Official DR value: DR6
Samplerate:        44100 Hz
Channels:          2
Bits per sample:   24
Bitrate:           1430 kbps
Codec:             FLAC
================================================================================
Grammy-nominated vocalist Jessie J to release new holiday This Christmas Day via Lava Records / Republic Records on 10/26. The album will include her previously released holiday track Man With The Bag in addition to holiday classics Let It Snow, Santa Claus Is Comin to Town, and Jingle Bell Rock . The album features production by David Foster. Jessie J will embark on her first US headlining tour this October.
Не забывайте говорить Спасибо. Не уходите с раздачи!   
Торрент: Зарегистрирован [26 окт 2018, 15:18]
Статус:
Проверен
 
.torrent скачан: 0 раз
Хэш: d03e423986a337c87f9dc917d92d9b4d5b7cbbf4
Размер: 409.68 МБ (429 576 438 байт)
   Стать Автором раздачи
   
Цитата
  • Похожие торренты
    Ответы
    Просмотры
    Последнее сообщение

Вернуться в Поп-музыка (Hi-Res stereo)

Кто сейчас на конференции

Сейчас эту тему просматривают: нет зарегистрированных пользователей и гости: 1