[TR24][OF] Eurythmics - Touch (Remastered) - 1983/2018 (Synth-Pop)

 Статистика раздачи 
Размер: 526.44 МБ   |  Зарегистрирован: 17 апр 2018, 18:24   |   .torrent скачан: 0 раз
Сидеров: 0  [ 0 байт/сек ]     Личеров: 0  [ 0 байт/сек ]  
  
Аватара пользователя
Главный редактор
Главный редактор
 
Раздал: 90.01 ТБ
Скачал: 3.78 ТБ
Ратио: 24.248
Сообщения: 274788
Стаж: 9 лет 1 месяц 19 дней
Откуда: Санкт-Петербург

Eurythmics - Touch
Формат записи/Источник записи: [TR24][OF]
Наличие водяных знаков: Нет
Издание: Remastered
Год издания/переиздания диска: 1983/2018
Жанр: Synth-Pop
Издатель (лейбл): Sony Music UK
Продолжительность: 45:50
Наличие сканов в содержимом раздачи: Только обложка альбома
Треклист:
01. Here Comes The Rain Again (4:56)
02. Regrets (4:46)
03. Right By Your Side (4:07)
04. Cool Blue (4:51)
05. Who's That Girl (4:48)
06. The First Cut (4:48)
07. Aqua (4:39)
08. No Fear, No Hate, No Pain (No Broken Hearts) (5:23)
09. Paint A Rumour (7:32)
 
Annie Lennox, vocals, flute, keyboards
David Stewart, guitar, dulcimer, keyboards, xylophone, programming, background vocals
Additional musicians:
Martin Dobson, baritone saxophone
Dick Cuthell, trumpet, cornet, flugelhorn
Dean Garcia, bass
British Philharmonic
Michael Kamen, conductor
[/spoiler]
 
The Eurythmics breakthrough third album Touch" for the first time on HighResAudio! This came at the end of 1983, a particularly prolific period for Stewart and Lennox - they had already spent most of the year in the chart with "Sweet Dreams," released at the beginning of the year. This album shows less reliance on programmed instrumentation and a less "Germanic" feel to the production. "The First Cut" and "Right By Your Side" indicate a loosening up and a more rootsy approach as Lennox discovers she has a great R&B/soul voice. "Here Comes The Rain Again" and "Who's That Girl?" exemplify the more familiar haunting Eurythmics sound.
"Eurythmics followed their 1982 breakthrough album Sweet Dreams with the superior Touch, which yielded three hit singles and kept the innovative duo at the forefront of the 1980s British new wave explosion and MTV phenomenon. Mixing cold, hard, synthesized riffs with warm, luscious vocals, the duo crafted some of the most unique and trendsetting music the 1980s had to offer. Subsequent albums found the duo leaning heavier toward straightforward rock -- this album found them at the height of their electronic incarnation. The lead single, "Here Comes the Rain Again," is a melodramatic opus, complete with pre-techno beats, sweeping strings, and Annie Lennox' rushing, cool vocals. The soulful "Who's That Girl" is an icy, steamy throwback to the torch songs of yesteryear, with Lennox oozing sensuality from every syllable emitted from her lips. The final hit, "Right by Your Side," finds the duo in a cheerful, Caribbean-inspired mode. Other standouts include the seven-and-a-half-minute disco trance of "Paint a Rumour," the driving "The First Cut," and the icy, spellbinding, and sparse "No Fear No Hate No Pain (No Broken Hearts)." The cool, sophisticated musical experimentalism all over Touch cemented Eurythmics' reputation as one of the most innovative duos of their time; the hit singles solidified their reputation as dependable 1980s hitmakers and MTV mainstays. Touch is a testament to what Eurythmics were at the height of their electronic-techno phase and, without doubt, is a milestone in 1980s pop music." (Jose F. Promis, AMG)

Контейнер: FLAC (*.flac)
Тип рипа: tracks
Разрядность: 24/44,1
Формат: PCM
Количество каналов: 2.0
Код: Выделить всё
foobar2000 1.3.9 / Dynamic Range Meter 1.1.1
log date: 2018-04-17 21:06:09
--------------------------------------------------------------------------------
Analyzed: Eurythmics / Touch
--------------------------------------------------------------------------------
DR         Peak         RMS     Duration Track
--------------------------------------------------------------------------------
DR13      -0.26 dB   -15.62 dB      4:56 01-Here Comes The Rain Again
DR15      -0.09 dB   -16.95 dB      4:46 02-Regrets
DR13      -0.20 dB   -15.54 dB      4:07 03-Right By Your Side
DR15      -0.71 dB   -17.24 dB      4:51 04-Cool Blue
DR14      -0.74 dB   -16.78 dB      4:48 05-Who's That Girl
DR14      -0.19 dB   -15.93 dB      4:48 06-The First Cut
DR13      -0.93 dB   -16.45 dB      4:39 07-Aqua
DR12      -0.48 dB   -16.12 dB      5:23 08-No Fear, No Hate, No Pain (No Broken Hearts)
DR13      -0.58 dB   -15.96 dB      7:32 09-Paint A Rumour
--------------------------------------------------------------------------------
Number of tracks:  9
Official DR value: DR14
Samplerate:        44100 Hz
Channels:          2
Bits per sample:   24
Bitrate:           1558 kbps
Codec:             FLAC
================================================================================
Источник: highresaudio.com[/spoiler]
Не забывайте говорить Спасибо. Не уходите с раздачи!   
Торрент: Зарегистрирован [17 апр 2018, 18:24]
Статус:
Проверен
 
.torrent скачан: 0 раз
Хэш: dd365f9fc6ab34fdb038abe41e6d4819590fb391
Размер: 526.44 МБ (552 014 642 байт)
   Стать Автором раздачи
   
Цитата
  • Похожие торренты
    Ответы
    Просмотры
    Последнее сообщение

Вернуться в Поп-музыка (Hi-Res stereo)

Кто сейчас на конференции

Сейчас эту тему просматривают: нет зарегистрированных пользователей и гости: 1