[TR24][OF] Miley Cyrus - Bangerz (Deluxe Edition) - 2013 (Pop)

 Статистика раздачи 
Размер: 733.92 МБ   |  Зарегистрирован: 12 июн 2018, 06:07   |   .torrent скачан: 0 раз
Сидеров: 0  [ 0 байт/сек ]     Личеров: 0  [ 0 байт/сек ]  
  
Аватара пользователя
Главный редактор
Главный редактор
 
Раздал: 90.01 ТБ
Скачал: 3.78 ТБ
Ратио: 24.248
Сообщения: 274106
Стаж: 9 лет 1 месяц 17 дней
Откуда: Санкт-Петербург
СообщениеДобавлено: 12 июн 2018, 06:07


Miley Cyrus / Bangerz (Deluxe Edition)
Формат записи/Источник записи: [TR24][OF]
Наличие водяных знаков: Нет
Год издания/переиздания диска: 2013
Жанр: Pop
Издатель (лейбл): RCA Records Label
Продолжительность: 01:01:02
Наличие сканов в содержимом раздачи: Только обложка альбома
Треклист:
1. Adore You (04:38)
2. We Can't Stop (03:51)
3. SMS (Bangerz) (feat. Britney Spears) (02:49)
4. 4x4 (feat. Nelly) (03:11)
5. My Darlin' (feat. Future) (04:03)
6. Wrecking Ball (03:41)
7. Love Money Party (feat. Big Sean) (03:39)
8. #GETITRIGHT (04:24)
9. Drive (04:15)
10. FU (feat. French Montana) (03:51)
11. Do My Thang (03:45)
12. Maybe You're Right (03:33)
13. Someone Else (04:48)
14. Rooting For My Baby (03:20)
15. On My Own (03:52)
16. Hands In the Air (feat. Ludacris) (03:22)
Контейнер: FLAC (*.flac)
Тип рипа: tracks
Разрядность: 24/44,1
Формат: PCM
Количество каналов: 2.0
Код: Выделить всё
foobar2000 1.3.13 / Замер динамического диапазона (DR) 1.1.1
Дата отчёта:  2018-06-12 08:47:48
--------------------------------------------------------------------------------
Анализ:   Miley Cyrus / Bangerz (Deluxe Edition)
--------------------------------------------------------------------------------
DR         Пики         RMS           Продолжительность трека
--------------------------------------------------------------------------------
DR5        0.00 дБ    -7.19 дБ      4:39 01-Adore You
DR5        0.00 дБ    -8.03 дБ      3:51 02-We Can't Stop
DR5       -0.20 дБ    -6.29 дБ      2:49 03-SMS (Bangerz)
DR5        0.00 дБ    -5.44 дБ      3:12 04-4x4
DR6       -0.20 дБ    -9.40 дБ      4:03 05-My Darlin'
DR6        0.00 дБ    -9.00 дБ      3:41 06-Wrecking Ball
DR6       -0.20 дБ    -8.10 дБ      3:40 07-Love Money Party
DR7        0.00 дБ    -8.21 дБ      4:25 08-#GETITRIGHT
DR6        0.00 дБ    -8.67 дБ      4:15 09-Drive
DR5        0.00 дБ    -7.06 дБ      3:51 10-FU
DR6       -0.20 дБ    -8.04 дБ      3:45 11-Do My Thang
DR6       -0.20 дБ    -7.62 дБ      3:33 12-Maybe You're Right
DR7       -0.20 дБ    -9.17 дБ      4:48 13-Someone Else
DR6       -0.22 дБ    -7.10 дБ      3:20 14-Rooting for My Baby
DR7        0.00 дБ    -7.88 дБ      3:52 15-On My Own
DR5       -0.20 дБ    -7.84 дБ      3:22 16-Hands in the Air
--------------------------------------------------------------------------------
Количество треков: 16
Реальные значения DR: DR6
Частота:   44100 Гц
Каналов:   2
Разрядность:   24
Битрейт:   1746 кбит/с
Кодек:   FLAC
================================================================================
Источник (релизер): Qobuz
Не забывайте говорить Спасибо. Не уходите с раздачи!   
Торрент: Зарегистрирован [12 июн 2018, 06:07]
Статус:
Проверен
 
.torrent скачан: 0 раз
Хэш: 61af12675dfbd06f6a813a02fed0754f1daedc58
Размер: 733.92 МБ (769 566 654 байт)
   Стать Автором раздачи
   
Цитата

Вернуться в Поп-музыка (Hi-Res stereo)

Кто сейчас на конференции

Сейчас эту тему просматривают: нет зарегистрированных пользователей и гости: 1