[TR24][OF] Backstreet Boys - DNA (2019) (Pop)

 Статистика раздачи 
Размер: 457.64 МБ   |  Зарегистрирован: 25 янв 2019, 16:51   |   .torrent скачан: 0 раз
Сидеров: 0  [ 0 байт/сек ]     Личеров: 0  [ 0 байт/сек ]  
  
Аватара пользователя
Главный редактор
Главный редактор
 
Раздал: 90.01 ТБ
Скачал: 3.78 ТБ
Ратио: 24.248
Сообщения: 274856
Стаж: 9 лет 1 месяц 20 дней
Откуда: Санкт-Петербург
СообщениеДобавлено: 25 янв 2019, 16:51


Backstreet Boys - DNA


Формат записи/Источник записи: [TR24][OF]
Наличие водяных знаков: Нет
Год издания: 2019
Жанр: Pop
Издатель (лейбл): RCA Records Label
Продолжительность: 00:39:19
Наличие сканов в содержимом раздачи: Только обложка альбома
Контейнер: FLAC (*.flac)
Тип рипа: tracks
Разрядность: 24/44.1
Формат: PCM
Количество каналов: 2.0
Источник (релизер): qobuz.com
Треклист
01. Don't Go Breaking My Heart (03:37)
02. Nobody Else (03:39)
03. Breathe (03:07)
04. New Love (03:00)
05. Passionate (03:44)
06. Is It Just Me (03:38)
07. Chances (02:54)
08. No Place (03:00)
09. Chateau (03:08)
10. The Way It Was (03:26)
11. Just Like You Like It (03:42)
12. OK (02:35)
Brian Littrell, vocals
A. J. McLean
, vocals
Howie Dorough, vocals
Nick Carter, vocals
Kevin Richardson, vocals
Код: Выделить всё
foobar2000 1.4 / Dynamic Range Meter 1.1.1
log date: 2019-01-25 20:39:28
--------------------------------------------------------------------------------
Analyzed: Backstreet Boys / DNA
--------------------------------------------------------------------------------
DR         Peak         RMS     Duration Track
--------------------------------------------------------------------------------
DR6        0.00 dB    -8.19 dB      3:37 01-Don't Go Breaking My Heart
DR5        0.00 dB    -6.44 dB      3:39 02-Nobody Else
DR6        0.00 dB    -7.46 dB      3:06 03-Breathe
DR6        0.00 dB    -7.16 dB      3:00 04-New Love
DR6        0.00 dB    -7.88 dB      3:44 05-Passionate
DR5        0.00 dB    -7.25 dB      3:38 06-Is It Just Me
DR5        0.00 dB    -6.83 dB      2:54 07-Chances
DR6        0.00 dB    -8.62 dB      3:00 08-No Place
DR5        0.00 dB    -7.40 dB      3:08 09-Chateau
DR5        0.00 dB    -6.97 dB      3:26 10-The Way It Was
DR7        0.00 dB    -8.91 dB      3:42 11-Just Like You Like It
DR5       -0.11 dB    -7.94 dB      2:31 12-OK
--------------------------------------------------------------------------------
Number of tracks:  12
Official DR value: DR6
Samplerate:        44100 Hz
Channels:          2
Bits per sample:   24
Bitrate:           1562 kbps
Codec:             FLAC
================================================================================
Backstreet's back, all right!
Early Friday morning, the Backstreet Boys announced they will embarking on a world tour in support of their tenth studio album, DNA, out Jan. 25, 2019. Now available for pre-order, the album includes songs written by Stuart Crichton, Andy Grammer, Lauv and Mike Sabbath. On Friday, they also released a new single, "Chances," written by Shawn Mendes and Ryan Tedder.
Produced by Live Nation, the DNA tour will be the boy band's biggest arena tour in 18 years—and Nick Carter, Howie Dorough, Brian Littrell, A. J. McLean and Kevin Richardson can't wait.
"When this group started 26 years ago—and through all the highs and lows of our career—we've had to learn it wasn't about us as individuals but about what's best for the group," says Dorough, adding that they are excited to be ending its Las Vegas residency. "These next set of dates are going to be a party," he says. "Then it's time for us to visit our fans all over the world."
Не забывайте говорить Спасибо. Не уходите с раздачи!   
Торрент: Зарегистрирован [25 янв 2019, 16:51]
Статус:
Проверен
 
.torrent скачан: 0 раз
Хэш: da19ea67d6dcba0f378825867c9e97e26509cf1e
Размер: 457.64 МБ (479 871 959 байт)
   Стать Автором раздачи
   
Цитата

Вернуться в Поп-музыка (Hi-Res stereo)

Кто сейчас на конференции

Сейчас эту тему просматривают: нет зарегистрированных пользователей и гости: 1