[TR24][OF] Ed Ames - It's A Man's World - 1966/2015 (Pop)

 Статистика раздачи 
Размер: 766.54 МБ   |  Зарегистрирован: 24 мар 2017, 20:17   |   .torrent скачан: 0 раз
Сидеров: 0  [ 0 байт/сек ]     Личеров: 0  [ 0 байт/сек ]  
  
Аватара пользователя
Главный редактор
Главный редактор
 
Раздал: 90.01 ТБ
Скачал: 3.78 ТБ
Ратио: 24.248
Сообщения: 273621
Стаж: 9 лет 1 месяц 12 дней
Откуда: Санкт-Петербург
СообщениеДобавлено: 24 мар 2017, 20:17


Ed Ames - It's A Man's World
Формат записи/Источник записи: [TR24][OF]
Наличие водяных знаков: Нет
Год издания/переиздания диска: 1966/2015
Жанр: Pop
Издатель (лейбл): RCA/Legacy
Продолжительность: 34:31
Наличие сканов в содержимом раздачи: Только обложка альбома
Треклист:
01. Mingo, The Man With The Bullwhip (3:22)
02. John Henry (2:58)
03. A Man And A Woman (2:23)
04. What Color (Is A Man) (2:11)
05. My Horses Ain't Hungry (2:03)
06. They Call The Wind Maria (3:01)
07. River Boy (2:33)
08. Feeling Good (3:23)
09. Daniel Boone (2:34)
10. Joey, Joey, Joey (4:26)
11. The Erie Canal (2:42)
12. Luck Be A Lady (2:54)
 
Edmund Dantes Urick, more widely knows as Ed Ames is an American popular singer and actor. Eddie Ames, having come from the barbershop-style popular 1950s singing group called The Ames Brothers, offered pop standards, continental pop, show tunes, and adult contemporary music on his solo albums, but his hits were mostly in a contemporary vein.

Контейнер: FLAC (*.flac)
Тип рипа: tracks
Разрядность: 24/96
Количество каналов: 2.0
Код: Выделить всё
foobar2000 1.3.9 / Dynamic Range Meter 1.1.1
log date: 2017-03-24 23:00:06
--------------------------------------------------------------------------------
Analyzed: Ed Ames / It's A Man's World
--------------------------------------------------------------------------------
DR         Peak         RMS     Duration Track
--------------------------------------------------------------------------------
DR10      -0.92 dB   -13.12 dB      3:22 01-Mingo, The Man With The Bullwhip
DR11      -0.03 dB   -13.80 dB      2:58 02-John Henry
DR10      -0.34 dB   -13.24 dB      2:23 03-A Man And A Woman
DR9       -0.03 dB   -12.10 dB      2:11 04-What Color (Is A Man)
DR10      -0.78 dB   -13.61 dB      2:03 05-My Horses Ain't Hungry
DR9       -0.29 dB   -12.53 dB      3:01 06-They Call The Wind Maria
DR11      -0.03 dB   -14.15 dB      2:33 07-River Boy
DR9       -2.18 dB   -14.21 dB      3:23 08-Feeling Good
DR10      -0.03 dB   -13.55 dB      2:34 09-Daniel Boone
DR10      -0.03 dB   -15.21 dB      4:26 10-Joey, Joey, Joey
DR11      -0.03 dB   -13.70 dB      2:42 11-The Erie Canal
DR9       -1.31 dB   -13.96 dB      2:54 12-Luck Be A Lady
--------------------------------------------------------------------------------
Number of tracks:  12
Official DR value: DR10
Samplerate:        96000 Hz
Channels:          2
Bits per sample:   24
Bitrate:           3100 kbps
Codec:             FLAC
================================================================================
Источник: acousticsounds.com[/spoiler]
Не забывайте говорить Спасибо. Не уходите с раздачи!   
Торрент: Зарегистрирован [24 мар 2017, 20:17]
Статус:
Проверен
 
.torrent скачан: 0 раз
Хэш: ce261276e976709e10d2a145203f9eafab4001dc
Размер: 766.54 МБ (803 775 755 байт)
   Стать Автором раздачи
   
Цитата

Вернуться в Поп-музыка (Hi-Res stereo)

Кто сейчас на конференции

Сейчас эту тему просматривают: нет зарегистрированных пользователей и гости: 1