[TR24][OF] Tarkan - 10 - 2017 (Pop)

 Статистика раздачи 
Размер: 798.81 МБ   |  Зарегистрирован: 11 окт 2017, 08:44   |   .torrent скачан: 0 раз
Сидеров: 0  [ 0 байт/сек ]     Личеров: 0  [ 0 байт/сек ]  
  
Аватара пользователя
Главный редактор
Главный редактор
 
Раздал: 90.01 ТБ
Скачал: 3.78 ТБ
Ратио: 24.248
Сообщения: 273876
Стаж: 9 лет 1 месяц 14 дней
Откуда: Санкт-Петербург
СообщениеДобавлено: 11 окт 2017, 08:44


Tarkan / 10
Формат записи/Источник записи: [TR24][OF]
Наличие водяных знаков: Нет
Год издания/переиздания диска: 2017
Жанр: Pop
Издатель (лейбл): DOĞAN MÜZİK YAPIM
Продолжительность: 01:04:01
Наличие сканов в содержимом раздачи: Только обложка альбома
Треклист:
01 Tarkan - Yolla [04:46]
02 Tarkan - Cay Simit [04:13]
03 Tarkan - Beni Cok Sev [04:17]
04 Tarkan - Ben Senin [03:52]
05 Tarkan - Cok Agladim [04:33]
06 Tarkan - Her Sey Fani [05:38]
07 Tarkan - Kedi Gibi [04:09]
08 Tarkan - Hodri Meydan [04:20]
09 Tarkan - Biz Cocukken [05:57]
10 Tarkan - Bal Kupu [04:14]
11 Tarkan - Acimasiz [04:16]
12 Tarkan - Sevdam Tek Nefes [04:41]
13 Tarkan - O Sevismeler [04:09]
14 Tarkan - Affedin Bizi Cocuklar [04:56]
Тип рипа: tracks
Разрядность: 24/44,1
Формат: FLAC
Количество каналов: 2.0
Код: Выделить всё
foobar2000 1.3.13 / Dynamic Range Meter 1.1.1
log date: 2017-10-11 11:38:09
--------------------------------------------------------------------------------
Analyzed: Tarkan / 10
--------------------------------------------------------------------------------
DR         Peak         RMS     Duration Track
--------------------------------------------------------------------------------
DR4       -0.10 dB    -4.69 dB      4:46 01-Yolla
DR4       -0.10 dB    -4.85 dB      4:13 02-Çay Simit
DR6       -0.10 dB    -7.48 dB      4:17 03-Beni Çok Sev
DR4       -0.10 dB    -5.72 dB      3:52 04-Ben Senin
DR4       -0.10 dB    -5.46 dB      4:33 05-Çok Ağladım
DR5       -0.10 dB    -6.38 dB      5:38 06-Her Şey Fani
DR5       -0.10 dB    -5.89 dB      4:09 07-Kedi Gibi
DR5       -0.10 dB    -6.03 dB      4:20 08-Hodri Meydan
DR6       -0.10 dB    -6.98 dB      5:57 09-Biz Çocukken
DR5       -0.10 dB    -5.77 dB      4:14 10-Bal Küpü
DR7       -0.10 dB    -7.95 dB      4:16 11-Acımasız
DR4       -0.10 dB    -5.16 dB      4:41 12-Sevdam Tek Nefes
DR9       -0.10 dB   -10.25 dB      4:09 13-O Sevişmeler
DR6       -0.10 dB    -8.23 dB      4:56 14-Affedin Bizi Çocuklar
--------------------------------------------------------------------------------
Number of tracks:  14
Official DR value: DR5
Samplerate:        44100 Hz
Channels:          2
Bits per sample:   24
Bitrate:           1644 kbps
Codec:             FLAC
================================================================================
Источник (релизер): WRZmusic
Не забывайте говорить Спасибо. Не уходите с раздачи!   
Торрент: Зарегистрирован [11 окт 2017, 08:44]
Статус:
Проверен
 
.torrent скачан: 0 раз
Хэш: 535322c3b3f12c45aabe656d213d66f5ef16cdef
Размер: 798.81 МБ (837 616 678 байт)
   Стать Автором раздачи
   
Цитата

Вернуться в Поп-музыка (Hi-Res stereo)

Кто сейчас на конференции

Сейчас эту тему просматривают: нет зарегистрированных пользователей и гости: 1