[TR24][OF] Utada Hikaru - Single Collection Vol. 1 (Remastered) - 2004/2014 (JPop)

 Статистика раздачи 
Размер: 1.63 ГБ   |  Зарегистрирован: 25 апр 2018, 19:02   |   .torrent скачан: 0 раз
Сидеров: 0  [ 0 байт/сек ]     Личеров: 0  [ 0 байт/сек ]  
  
Аватара пользователя
Главный редактор
Главный редактор
 
Раздал: 90.01 ТБ
Скачал: 3.78 ТБ
Ратио: 24.248
Сообщения: 274043
Стаж: 9 лет 1 месяц 16 дней
Откуда: Санкт-Петербург

Utada Hikaru - Single Collection Vol. 1
Формат записи/Источник записи: [TR24][OF]
Наличие водяных знаков: Нет
Издание: Remastered
Год издания/переиздания диска: 2004/2014
Жанр: JPop
Издатель (лейбл): Virgin Music
Продолжительность: 01:15:13
Наличие сканов в содержимом раздачи: Только обложка альбома
Треклист:
01. Time Will Tell (5:27)
02. Automatic (5:12)
03. Movin' On Without You (4:41)
04. First Love (4:19)
05. Addicted To You (Up-In-Heaven Mix) (5:20)
06. Wait & See (Risk) (4:50)
07. For You (5:24)
08. Time Limit (4:56)
09. Can You Keep A Secret? (5:10)
10. Final Distance (5:40)
11. Traveling (5:14)
12. Hikari (5:03)
13. Sakura Drops (5:08)
14. Letters (4:48)
15. Colors (4:00)
Recorded: 1998–2002. 

Контейнер: FLAC (*.flac)
Тип рипа: tracks
Разрядность: 24/96
Формат: PCM
Количество каналов: 2.0
Код: Выделить всё
foobar2000 1.3.9 / Dynamic Range Meter 1.1.1
log date: 2018-04-25 21:58:40
--------------------------------------------------------------------------------
Analyzed: Utada Hikaru / Single Collection Vol. 1
--------------------------------------------------------------------------------
DR         Peak         RMS     Duration Track
--------------------------------------------------------------------------------
DR7        0.00 dB    -8.73 dB      5:27 01-Time Will Tell
DR6        0.00 dB    -7.25 dB      5:12 02-Automatic
DR6        0.00 dB    -7.95 dB      4:41 03-Movin' On Without You
DR7        0.00 dB    -9.69 dB      4:19 04-First Love
DR7        0.00 dB    -8.39 dB      5:20 05-Addicted To You (Up-In-Heaven Mix)
DR5        0.00 dB    -6.75 dB      4:50 06-Wait & See (Risk)
DR7        0.00 dB    -8.81 dB      5:24 07-For You
DR7        0.00 dB    -8.10 dB      4:56 08-Time Limit
DR6        0.00 dB    -8.19 dB      5:10 09-Can You Keep A Secret?
DR8        0.00 dB   -10.88 dB      5:40 10-Final Distance
DR5        0.00 dB    -6.91 dB      5:14 11-Traveling
DR5        0.00 dB    -6.65 dB      5:03 12-Hikari
DR5        0.00 dB    -7.89 dB      5:08 13-Sakura Drops
DR6        0.00 dB    -7.72 dB      4:48 14-Letters
DR5        0.00 dB    -6.29 dB      4:00 15-Colors
--------------------------------------------------------------------------------
Number of tracks:  15
Official DR value: DR6
Samplerate:        96000 Hz
Channels:          2
Bits per sample:   24
Bitrate:           3143 kbps
Codec:             FLAC
================================================================================
Источник: e-onkyo.com[/spoiler]
Не забывайте говорить Спасибо. Не уходите с раздачи!   
Торрент: Зарегистрирован [25 апр 2018, 19:02]
Статус:
Проверен
 
.torrent скачан: 0 раз
Хэш: fb276b1418ade8339864a737746f74efa912b69c
Размер: 1.63 ГБ (1 751 459 665 байт)
   Стать Автором раздачи
   
Цитата
  • Похожие торренты
    Ответы
    Просмотры
    Последнее сообщение

Вернуться в Поп-музыка (Hi-Res stereo)

Кто сейчас на конференции

Сейчас эту тему просматривают: нет зарегистрированных пользователей и гости: 1