[TR24][OF] Utada Hikaru - Single Collection Vol. 2 (Remastered) - 2010/2014 (JPop)

 Статистика раздачи 
Размер: 1.84 ГБ   |  Зарегистрирован: 25 апр 2018, 19:35   |   .torrent скачан: 0 раз
Сидеров: 0  [ 0 байт/сек ]     Личеров: 0  [ 0 байт/сек ]  
  
Аватара пользователя
Главный редактор
Главный редактор
 
Раздал: 90.01 ТБ
Скачал: 3.78 ТБ
Ратио: 24.248
Сообщения: 274187
Стаж: 9 лет 1 месяц 18 дней
Откуда: Санкт-Петербург

Utada Hikaru - Single Collection Vol. 2
Формат записи/Источник записи: [TR24][OF]
Наличие водяных знаков: Нет
Издание: Remastered
Год издания/переиздания диска: 2010/2014
Жанр: JPop
Издатель (лейбл): Virgin Music
Продолжительность: 01:25:58
Наличие сканов в содержимом раздачи: Только обложка альбома
Треклист:
01. Prisoner Of Love (4:46)
02. Stay Gold (5:16)
03. Heart Station (4:37)
04. Kiss & Cry (5:08)
05. Beautiful World (5:17)
06. Flavor Of Life (Ballad Version) (5:26)
07. Boku wa Kuma (2:25)
08. This Is Love (4:58)
09. Keep Tryin' (4:55)
10. Passion (4:45)
11. Be My Last (4:32)
12. Dareka no Negai ga Kanau Koro (4:28)
13. Beautiful World (Planitb Acoustica Mix) (5:15)
14. Arashi no Megami (4:16)
15. Show Me Love (Not A Dream) (4:18)
16. Goodbye Happiness (5:21)
17. Hymne à l'amour (Ai no Anthem) (6:29)
18. Can't Wait 'Til Christmas (3:46)
Recorded: 2004–2010. 

Контейнер: FLAC (*.flac)
Тип рипа: tracks
Разрядность: 24/96
Формат: PCM
Количество каналов: 2.0
Код: Выделить всё
foobar2000 1.3.9 / Dynamic Range Meter 1.1.1
log date: 2018-04-25 22:24:00
--------------------------------------------------------------------------------
Analyzed: Utada Hikaru / Single Collection Vol. 2
--------------------------------------------------------------------------------
DR         Peak         RMS     Duration Track
--------------------------------------------------------------------------------
DR6        0.00 dB    -8.22 dB      4:46 01-Prisoner Of Love
DR7        0.00 dB    -8.05 dB      5:16 02-Stay Gold
DR5        0.00 dB    -6.62 dB      4:37 03-Heart Station
DR5        0.00 dB    -5.95 dB      5:08 04-Kiss & Cry
DR6        0.00 dB    -6.96 dB      5:17 05-Beautiful World
DR6        0.00 dB    -7.89 dB      5:26 06-Flavor Of Life (Ballad Version)
DR8       -0.04 dB   -10.09 dB      2:25 07-Boku wa Kuma
DR5        0.00 dB    -6.32 dB      4:58 08-This Is Love
DR6        0.00 dB    -8.12 dB      4:55 09-Keep Tryin'
DR6        0.00 dB    -7.42 dB      4:45 10-Passion
DR5        0.00 dB    -7.05 dB      4:32 11-Be My Last
DR9        0.00 dB   -11.74 dB      4:28 12-Dareka no Negai ga Kanau Koro
DR5        0.00 dB    -6.90 dB      5:15 13-Beautiful World (Planitb Acoustica Mix)
DR6        0.00 dB    -8.32 dB      4:16 14-Arashi no Megami
DR6        0.00 dB    -7.99 dB      4:18 15-Show Me Love (Not A Dream)
DR6        0.00 dB    -7.71 dB      5:21 16-Goodbye Happiness
DR7        0.00 dB    -8.83 dB      6:29 17-Hymne à l'amour (Ai no Anthem)
DR10      -0.02 dB   -12.94 dB      3:46 18-Can't Wait 'Til Christmas
--------------------------------------------------------------------------------
Number of tracks:  18
Official DR value: DR6
Samplerate:        96000 Hz
Channels:          2
Bits per sample:   24
Bitrate:           2691 kbps
Codec:             FLAC
================================================================================
Источник: e-onkyo.com[/spoiler]
Не забывайте говорить Спасибо. Не уходите с раздачи!   
Торрент: Зарегистрирован [25 апр 2018, 19:35]
Статус:
Проверен
 
.torrent скачан: 0 раз
Хэш: 2c98993360c738189143ccc8665248c04867d602
Размер: 1.84 ГБ (1 971 972 739 байт)
   Стать Автором раздачи
   
Цитата
  • Похожие торренты
    Ответы
    Просмотры
    Последнее сообщение

Вернуться в Поп-музыка (Hi-Res stereo)

Кто сейчас на конференции

Сейчас эту тему просматривают: нет зарегистрированных пользователей и гости: 1