[TR24][OF] Diana Ross - Surrender - 1971/2016 (Pop, R&B)

 Статистика раздачи 
Размер: 1.86 ГБ   |  Зарегистрирован: 25 янв 2017, 08:11   |   .torrent скачан: 0 раз
Сидеров: 0  [ 0 байт/сек ]     Личеров: 0  [ 0 байт/сек ]  
  
Аватара пользователя
Главный редактор
Главный редактор
 
Раздал: 90.01 ТБ
Скачал: 3.78 ТБ
Ратио: 24.248
Сообщения: 274856
Стаж: 9 лет 1 месяц 20 дней
Откуда: Санкт-Петербург
СообщениеДобавлено: 25 янв 2017, 08:11


Diana Ross / Surrender
Формат записи/Источник записи: [TR24][OF]
Наличие водяных знаков: Нет
Год издания/переиздания диска: 1971/2016
Жанр: Pop, R&B
Издатель(лейбл): Universal Motown
Продолжительность: 39:10
Наличие сканов в содержимом раздачи: Только обложка альбома
Треклист:
1. Surrender
2. I Can't Give Back The Love I Feel For You
3. Remember Me
4. And If You See Him
5. Reach Out I'll Be There
6. Didn't You Know (You'd Have To Cry Sometime)
7. A Simple Thing Like Cry
8. Did You Read The Morning Paper?
9. I'll Settle For You
10. I'm A Winner
11. All The Befores
Контейнер: FLAC (*.flac)
Тип рипа: tracks
Разрядность: 24/192
Формат: PCM
Количество каналов: 2.0
Код: Выделить всё
foobar2000 1.3.11 / Dynamic Range Meter 1.1.1
log date: 2016-09-29 22:32:39
--------------------------------------------------------------------------------
Analyzed: Diana Ross / Surrender
--------------------------------------------------------------------------------
DR         Peak         RMS     Duration Track
--------------------------------------------------------------------------------
DR9       -0.11 dB   -11.96 dB      2:52 01-Surrender
DR10      -0.22 dB   -11.85 dB      3:20 02-I Can't Give Back The Love I Feel For You
DR10      -0.18 dB   -11.84 dB      3:31 03-Remember Me
DR10      -0.14 dB   -12.06 dB      2:52 04-And If You See Him
DR10      -0.36 dB   -14.28 dB      5:34 05-Reach Out I'll Be There
DR9       -0.02 dB   -11.44 dB      3:04 06-Didn't You Know (You'd Have To Cry Sometime)
DR10      -0.49 dB   -13.21 dB      3:04 07-A Simple Thing Like Cry
DR9       -0.59 dB   -11.82 dB      3:50 08-Did You Read The Morning Paper?
DR11      -0.29 dB   -12.98 dB      3:06 09-I'll Settle For You
DR9       -0.15 dB   -11.48 dB      3:13 10-I'm A Winner
DR11       0.00 dB   -14.09 dB      4:44 11-All The Befores
--------------------------------------------------------------------------------
Number of tracks:  11
Official DR value: DR10
Samplerate:        192000 Hz
Channels:          2
Bits per sample:   24
Bitrate:           6734 kbps
Codec:             FLAC
================================================================================


Источник (релизер):
Не забывайте говорить Спасибо. Не уходите с раздачи!   
Торрент: Зарегистрирован [25 янв 2017, 08:11]
Статус:
Проверен
 
.torrent скачан: 0 раз
Хэш: 31fc1e8b7a6ec61ba96936db167718548317e830
Размер: 1.86 ГБ (1 991 883 074 байт)
   Стать Автором раздачи
   
Цитата
  • Похожие торренты
    Ответы
    Просмотры
    Последнее сообщение

Вернуться в Поп-музыка (Hi-Res stereo)

Кто сейчас на конференции

Сейчас эту тему просматривают: нет зарегистрированных пользователей и гости: 1