[TR24][OF] Christina Aguilera - Liberation (Explicit) - 2018 (Pop)

 Статистика раздачи 
Размер: 559.63 МБ   |  Зарегистрирован: 15 июн 2018, 00:10   |   .torrent скачан: 0 раз
Сидеров: 0  [ 0 байт/сек ]     Личеров: 0  [ 0 байт/сек ]  
  
Аватара пользователя
Главный редактор
Главный редактор
 
Раздал: 90.01 ТБ
Скачал: 3.78 ТБ
Ратио: 24.248
Сообщения: 274856
Стаж: 9 лет 1 месяц 20 дней
Откуда: Санкт-Петербург

Christina Aguilera - Liberation
Формат записи/Источник записи: [TR24][OF]
Наличие водяных знаков: Нет
Издание: Explicit
Год издания/переиздания диска: 2018
Жанр: Pop
Издатель (лейбл): RCA Records
Продолжительность: 49:25
Наличие сканов в содержимом раздачи: Только обложка альбома
Треклист:
01. Liberation (1:47)
02. Searching For Maria (0:25)
03. Maria (4:35)
04. Sick Of Sittin' (4:01)
05. Dreamers (0:37)
06. Fall In Line (4:07)
07. Right Moves (3:48)
08. Like I Do (4:49)
09. Deserve (4:24)
10. Twice (4:02)
11. I Don't Need It Anymore (Interlude) (0:55)
12. Accelerate (4:04)
13. Pipe (4:05)
14. Masochist (3:30)
15. Unless It's With You (4:17)
 
Nothing less than high drama suits Christina Aguilera’s voice. She can be brassy, tearful, sultry, gritty, breathy, sweet or furious. She can belt and she can tease; she can aim a note as directly as a missile or turn its trajectory into an aerobatic spiral of leaping, quivering, scalloping melismas. Her voice is not an instrument for making modest statements; it’s about peaks of self-affirmation, indescribable sensual pleasures, steely counterattacks and abysses of sorrow.
She unleashes all of them on “Liberation,” her eighth studio album and her first since “Lotus” in 2012. It’s a return to the pop fray after multiple seasons as a coach on “The Voice” that made sure viewers didn’t forget her vocal mastery. It’s an album of extreme ups and downs: wretched and ecstatic, calculating and abandoned, seesawing between angst and raunch. Heard as a whole — unlikely as that might be in 2018 — it’s an album that moves through trauma, lust, resistance, obsession and, finally, lasting love. Her extravagant vocal flourishes connect with sweeping emotion.
Top 10 pop — the realm where Ms. Aguilera has repeatedly proved herself since “Genie in a Bottle” in 1999 — doesn’t always reward big, natural voices as it once did, especially for singers who aren’t named Adele. Auto-Tune; hip-hop; and the nasal, narcotized, dispirited voices of SoundCloud rap compete with, and often out-stream, the kind of soulful vocal storytelling that would have had Ms. Aguilera flourishing in previous eras. A voice like hers has become something like a turntable: a vintage prize, a modern novelty, a niche taste. By Jon Pareles

Контейнер: FLAC (*.flac)
Тип рипа: tracks
Разрядность: 24/44,1
Формат: PCM
Количество каналов: 2.0
Код: Выделить всё
foobar2000 1.3.9 / Dynamic Range Meter 1.1.1
log date: 2018-06-14 21:54:05
--------------------------------------------------------------------------------
Analyzed: Christina Aguilera / Liberation
--------------------------------------------------------------------------------
DR         Peak         RMS     Duration Track
--------------------------------------------------------------------------------
DR9        0.00 dB   -13.68 dB      1:47 01-Liberation
DR9       -0.53 dB   -17.60 dB      0:25 02-Searching For Maria
DR6        0.00 dB    -8.55 dB      4:35 03-Maria
DR5        0.00 dB    -6.86 dB      4:01 04-Sick Of Sittin'
DR14      -1.52 dB   -18.33 dB      0:37 05-Dreamers
DR5       -0.18 dB    -6.99 dB      4:07 06-Fall In Line
DR7        0.00 dB    -8.80 dB      3:48 07-Right Moves
DR6        0.00 dB    -8.76 dB      4:49 08-Like I Do
DR6        0.00 dB    -8.63 dB      4:24 09-Deserve
DR7        0.00 dB   -10.24 dB      4:02 10-Twice
DR10      -0.31 dB   -13.02 dB      0:55 11-I Don't Need It Anymore (Interlude)
DR5       -0.02 dB    -8.91 dB      4:04 12-Accelerate
DR6        0.00 dB    -7.77 dB      4:05 13-Pipe
DR7        0.00 dB    -9.04 dB      3:30 14-Masochist
DR6        0.00 dB    -9.16 dB      4:17 15-Unless It's With You
--------------------------------------------------------------------------------
Number of tracks:  15
Official DR value: DR7
Samplerate:        44100 Hz
Channels:          2
Bits per sample:   24
Bitrate:           1629 kbps
Codec:             FLAC
================================================================================
Источник: 7digital.com[/spoiler]
Не забывайте говорить Спасибо. Не уходите с раздачи!   
Торрент: Зарегистрирован [15 июн 2018, 00:10]
Статус:
Проверен
 
.torrent скачан: 0 раз
Хэш: a2414b14cedc71af686e9f63941e33aeed9b5f4c
Размер: 559.63 МБ (586 815 568 байт)
   Стать Автором раздачи
   
Цитата
  • Похожие торренты
    Ответы
    Просмотры
    Последнее сообщение

Вернуться в Поп-музыка (Hi-Res stereo)

Кто сейчас на конференции

Сейчас эту тему просматривают: нет зарегистрированных пользователей и гости: 1