[TR24][OF] Mariah Carey - Mariah Carey - 1990/2015 (Pop)

 Статистика раздачи 
Размер: 1.5 ГБ   |  Зарегистрирован: 11 янв 2017, 05:52   |   .torrent скачан: 0 раз
Сидеров: 0  [ 0 байт/сек ]     Личеров: 0  [ 0 байт/сек ]  
  
Аватара пользователя
Главный редактор
Главный редактор
 
Раздал: 90.01 ТБ
Скачал: 3.78 ТБ
Ратио: 24.248
Сообщения: 274856
Стаж: 9 лет 1 месяц 20 дней
Откуда: Санкт-Петербург
СообщениеДобавлено: 11 янв 2017, 05:52


Mariah Carey / Mariah Carey
Формат записи/Источник записи: [TR24][OF]
Наличие водяных знаков: Нет
Год издания/переиздания диска: 1990/2015
Жанр: Pop
Издатель(лейбл): Sony Music Labels Inc.
Продолжительность: 46:23
Наличие сканов в содержимом раздачи: Только обложка альбома
Треклист:
1 Vision Of Love
2 There’s Got To Be A Way
3 I Don’t Wanna Cry
4 Someday
5 Vanishing
6 All In Your Mind
7 Alone In Love
8 You Need Me
9 Sent From Up Above
10 Prisoner
11 Love Takes Time
Контейнер: FLAC (*.flac)
Тип рипа: tracks
Разрядность: 24/96
Формат: PCM
Количество каналов: 2.0
Код: Выделить всё
foobar2000 1.3.13 / Замер динамического диапазона (DR) 1.1.1
Дата отчёта:  2017-01-10 21:14:41
--------------------------------------------------------------------------------
Анализ:   MARIAH CAREY / Mariah Carey (HDTracks)
--------------------------------------------------------------------------------
DR         Пики         RMS           Продолжительность трека
--------------------------------------------------------------------------------
DR12      -0.58 дБ   -15.54 дБ      3:29 01-Vision Of Love
DR11      -0.88 дБ   -14.22 дБ      4:52 02-There's Got To Be A Way
DR13      -1.46 дБ   -16.10 дБ      4:47 03-I Don't Wanna Cry
DR10      -1.52 дБ   -14.07 дБ      4:05 04-Someday
DR9       -3.58 дБ   -16.38 дБ      4:12 05-Vanishing
DR11      -0.77 дБ   -14.37 дБ      4:43 06-All In Your Mind
DR12      -1.68 дБ   -16.48 дБ      4:10 07-Alone In Love
DR14      -1.44 дБ   -18.14 дБ      3:50 08-You Need Me
DR12      -2.10 дБ   -16.43 дБ      4:04 09-Sent From Up Above
DR11      -1.24 дБ   -15.15 дБ      4:22 10-Prisoner
DR12      -0.75 дБ   -16.58 дБ      3:49 11-Love Takes Time
--------------------------------------------------------------------------------
Количество треков: 11
Реальные значения DR: DR12
Частота:   96000 Гц
Каналов:   2
Разрядность:   24
Битрейт:   4616 кбит/с
Кодек:   FLAC
================================================================================


Источник (релизер):
Не забывайте говорить Спасибо. Не уходите с раздачи!   
Торрент: Зарегистрирован [11 янв 2017, 05:52]
Статус:
Проверен
 
.torrent скачан: 0 раз
Хэш: ec7da09a5571ad7cc7815fc42d51bf7a226c530a
Размер: 1.5 ГБ (1 610 582 165 байт)
   Стать Автором раздачи
   
Цитата
  • Похожие торренты
    Ответы
    Просмотры
    Последнее сообщение

Вернуться в Поп-музыка (Hi-Res stereo)

Кто сейчас на конференции

Сейчас эту тему просматривают: нет зарегистрированных пользователей и гости: 1