[TR24][OF] Dottie West - Dottie West Sings - 1965/2015 (Country, Pop)

 Статистика раздачи 
Размер: 548.64 МБ   |  Зарегистрирован: 30 ноя 2017, 09:28   |   .torrent скачан: 0 раз
Сидеров: 0  [ 0 байт/сек ]     Личеров: 0  [ 0 байт/сек ]  
  
Аватара пользователя
Главный редактор
Главный редактор
 
Раздал: 90.01 ТБ
Скачал: 3.78 ТБ
Ратио: 24.248
Сообщения: 274856
Стаж: 9 лет 1 месяц 20 дней
Откуда: Санкт-Петербург

Dottie West - Dottie West Sings
Формат записи/Источник записи: [TR24][OF]
Наличие водяных знаков: Нет
Год издания/переиздания диска: 1965/2015
Жанр: Country, Pop
Издатель (лейбл): RLG/Legacy
Продолжительность: 29:46
Наличие сканов в содержимом раздачи: Только обложка альбома
Треклист:
01. No Sign Of Living (2:18)
02. Happiness Lives Next Door (2:33)
03. I Can Turn You Every Way But Loose (2:05)
04. Left-Over Corner Of Your Heart (2:28)
05. Don't You Ever Get Tired (Of Hurting Me) (2:45)
06. It Just Takes Practice (2:35)
07. You're The Only World I Know (2:13)
08. I'll Pick Up My Heart And Go Home (2:53)
09. (You Took) The Easy Way Out (2:28)
10. When Two Worlds Collide (2:26)
11. Gettin' Married Has Made Us Strangers (2:32)
12. If I Can Stay Away Long Enough (2:31)
Personnel:
Dottie West, vocals
Grady Martin, Jerry Reed, Harold Bradley, Ray Edenton, guitar
Bill West, steel guitar
Henry Strzelecki, bass
Floyd Cramer, piano
Kenneth Buttrey, drums
Anita Kerr Singers, backing vocals
 
Dottie West Sings is the name of a country music album by country singer, Dottie West, released in 1965.
This is Dottie West's second studio album released by RCA Victor. The previous year, West successfully entered the country market with the Top 10 Grammy Award-winning hit, "Here Comes My Baby". The singles from her second album didn't hit the Top 10 or 20 but did enter the Country Top 40 chart. These two singles were, "Gettin' Married Has Made Us Strangers" and "No Sign of Living". The latter song was written by Jessi Colter, the future wife of Waylon Jennings who became a country singer herself in the mid-1970s. This album did well on the "Top Country Albums" chart, reaching No. 12.

Контейнер: FLAC (*.flac)
Тип рипа: tracks
Разрядность: 24/96
Формат: PCM
Количество каналов: 2.0
Код: Выделить всё
foobar2000 1.3.9 / Dynamic Range Meter 1.1.1
log date: 2017-11-30 12:16:35
--------------------------------------------------------------------------------
Analyzed: Dottie West / Dottie West Sings
--------------------------------------------------------------------------------
DR         Peak         RMS     Duration Track
--------------------------------------------------------------------------------
DR9       -4.99 dB   -17.95 dB      2:18 01-No Sign Of Living
DR11      -4.43 dB   -18.04 dB      2:33 02-Happiness Lives Next Door
DR11      -3.44 dB   -16.78 dB      2:05 03-I Can Turn You Every Way But Loose
DR10      -6.12 dB   -19.20 dB      2:28 04-Left-Over Corner Of Your Heart
DR11      -2.93 dB   -17.06 dB      2:45 05-Don't You Ever Get Tired (Of Hurting Me)
DR10      -5.17 dB   -19.02 dB      2:35 06-It Just Takes Practice
DR10      -4.02 dB   -15.87 dB      2:13 07-You're The Only World I Know
DR10      -4.39 dB   -16.92 dB      2:53 08-I'll Pick Up My Heart And Go Home
DR11      -3.02 dB   -17.18 dB      2:28 09-(You Took) The Easy Way Out
DR10      -4.06 dB   -17.20 dB      2:26 10-When Two Worlds Collide
DR10      -4.19 dB   -17.75 dB      2:32 11-Gettin' Married Has Made Us Strangers
DR10      -4.52 dB   -18.17 dB      2:31 12-If I Can Stay Away Long Enough
--------------------------------------------------------------------------------
Number of tracks:  12
Official DR value: DR10
Samplerate:        96000 Hz
Channels:          2
Bits per sample:   24
Bitrate:           2573 kbps
Codec:             FLAC
================================================================================
Источник: hdtracks.com[/spoiler]
Не забывайте говорить Спасибо. Не уходите с раздачи!   
Торрент: Зарегистрирован [30 ноя 2017, 09:28]
Статус:
Проверен
 
.torrent скачан: 0 раз
Хэш: 1cca13987c06454c271ffe204714014aa9654b2c
Размер: 548.64 МБ (575 289 572 байт)
   Стать Автором раздачи
   
Цитата
  • Похожие торренты
    Ответы
    Просмотры
    Последнее сообщение

Вернуться в Поп-музыка (Hi-Res stereo)

Кто сейчас на конференции

Сейчас эту тему просматривают: нет зарегистрированных пользователей и гости: 1