[TR24][OF] Dottie West - Suffer Time - 1966/2016 (Country, Pop)

 Статистика раздачи 
Размер: 1.16 ГБ   |  Зарегистрирован: 28 янв 2018, 20:39   |   .torrent скачан: 0 раз
Сидеров: 0  [ 0 байт/сек ]     Личеров: 0  [ 0 байт/сек ]  
  
Аватара пользователя
Главный редактор
Главный редактор
 
Раздал: 90.01 ТБ
Скачал: 3.78 ТБ
Ратио: 24.248
Сообщения: 274856
Стаж: 9 лет 1 месяц 20 дней
Откуда: Санкт-Петербург
СообщениеДобавлено: 28 янв 2018, 20:39


Dottie West - Suffer Time
Формат записи/Источник записи: [TR24][OF]
Наличие водяных знаков: Нет
Год издания/переиздания диска: 1966/2016
Жанр: Country, Pop
Издатель (лейбл): RCA Victor/Legacy
Продолжительность: 32:01
Наличие сканов в содержимом раздачи: Только обложка альбома
Треклист:
01. Mommy, Can I Still Call Him Daddy (3:00)
02. Another Heart For You To Break (2:01)
03. Baby (2:59)
04. Before The Ring On Your Finger Turns Green (2:02)
05. Wear Away (2:42)
06. Fair Weather Lover (2:40)
07. Suffer Time (2:23)
08. Let Me Talk To You (2:57)
09. Would You Hold It Against Me (2:42)
10. Just Out Of Reach (2:53)
11. What's Come Over My Baby (2:59)
12. Is This Me? (2:43)
 
Dottie West is visibly suffering on the cover of her 1966 album Suffer Time. Not only is she wearing a pained expression – she appears to be on the verge of jumping off a bridge. The first song, "Mommy, Can I Still Call Him Daddy," could certainly drive its listeners to jump off a bridge. The wretched warbling of West's four-year-old son, Dale, renders nearly unbearable this maudlin tale of divorce as seen through the eyes of a child. Producer Chet Atkins must have had some difficulty getting a usable performance out of the tyke, because it sounds like he used a single take of the boy singing the chorus and dubbed it in everywhere it appears in the song. Even following on the heels of West's Top Five hit "Would You Hold It Against Me" wasn't enough to push this stinker into the Top 20. The album quickly improves, however, and wrings the tears out of a platter's worth of weepers about dead and dying love. West composed most of the songs on the album with her husband, including the two aforementioned hits and the album's second Top 20 entry, "What's Come Over My Baby." Felice and Boudleaux Bryant contributed the moderate hit "Before the Ring on Your Finger Turns Green," the only uptempo song on the album's first side. Atkins produced all but three cuts, which he delegated to Ray Stevens. The production style on Stevens' tracks is noticeably different, disrupting the continuity of the album. Thanks in large part to its four hit singles, Suffer Time was a substantial hit on the country album charts, despite the liner notes' promise that it will make its audience "taste the unhappiness of the eternal loser."

Контейнер: FLAC (*.flac)
Тип рипа: tracks
Разрядность: 24/192
Формат: PCM
Количество каналов: 2.0
Код: Выделить всё
foobar2000 1.3.9 / Dynamic Range Meter 1.1.1
log date: 2018-01-28 23:30:34
--------------------------------------------------------------------------------
Analyzed: Dottie West / Suffer Time
--------------------------------------------------------------------------------
DR         Peak         RMS     Duration Track
--------------------------------------------------------------------------------
DR10      -0.38 dB   -12.77 dB      3:00 01-Mommy, Can I Still Call Him Daddy
DR11      -0.02 dB   -13.57 dB      2:01 02-Another Heart For You To Break
DR11      -0.70 dB   -14.33 dB      2:59 03-Baby
DR10      -0.21 dB   -12.21 dB      2:02 04-Before The Ring On Your Finger Turns Green
DR12      -0.02 dB   -15.30 dB      2:42 05-Wear Away
DR11      -0.02 dB   -13.11 dB      2:40 06-Fair Weather Lover
DR11      -0.02 dB   -13.91 dB      2:23 07-Suffer Time
DR11      -0.02 dB   -13.77 dB      2:57 08-Let Me Talk To You
DR11      -0.02 dB   -12.91 dB      2:42 09-Would You Hold It Against Me
DR11      -0.02 dB   -13.00 dB      2:53 10-Just Out Of Reach
DR10      -0.63 dB   -12.64 dB      2:59 11-What's Come Over My Baby
DR11      -0.02 dB   -14.38 dB      2:43 12-Is This Me?
--------------------------------------------------------------------------------
Number of tracks:  12
Official DR value: DR11
Samplerate:        192000 Hz
Channels:          2
Bits per sample:   24
Bitrate:           5103 kbps
Codec:             FLAC
================================================================================
Источник: hdtracks.com[/spoiler]
Не забывайте говорить Спасибо. Не уходите с раздачи!   
Торрент: Зарегистрирован [28 янв 2018, 20:39]
Статус:
Проверен
 
.torrent скачан: 0 раз
Хэш: 8e0fadd463d961be6695982eb4179f9e8fad6453
Размер: 1.16 ГБ (1 246 077 368 байт)
   Стать Автором раздачи
   
Цитата
  • Похожие торренты
    Ответы
    Просмотры
    Последнее сообщение

Вернуться в Поп-музыка (Hi-Res stereo)

Кто сейчас на конференции

Сейчас эту тему просматривают: нет зарегистрированных пользователей и гости: 1