[TR24][OF] Lady Gaga - Joanne - 2016 (Pop)

 Статистика раздачи 
Размер: 576.95 МБ   |  Зарегистрирован: 05 ноя 2016, 14:29   |   .torrent скачан: 0 раз
Сидеров: 0  [ 0 байт/сек ]     Личеров: 0  [ 0 байт/сек ]  
  
Аватара пользователя
Главный редактор
Главный редактор
 
Раздал: 90.01 ТБ
Скачал: 3.78 ТБ
Ратио: 24.248
Сообщения: 273876
Стаж: 9 лет 1 месяц 14 дней
Откуда: Санкт-Петербург
СообщениеДобавлено: 05 ноя 2016, 14:29


Lady Gaga / Joanne
Формат записи/Источник записи: [TR24][OF]
Наличие водяных знаков: Нет
Год издания/переиздания диска: 2016
Жанр: Pop
Издатель(лейбл): Interscope Records
Продолжительность: 47:25
Наличие сканов в содержимом раздачи: Нет
Треклист:
01. Diamond Heart (3:30)
02. A-YO (3:28)
03. Joanne (3:17)
04. John Wayne (2:54)
05. Dancin' In Circles (3:27)
06. Perfect Illusion (3:02)
07. Million Reasons (3:25)
08. Sinner's Prayer (3:43)
09. Come To Mama (4:15)
10. Hey Girl (Featuring Florence Welch) (4:15)
11. Angel Down (3:49)
12. Grigio Girls (3:00)
13. Just Another Day (2:58)
14. Angel Down (Work Tape) (2:20)
Контейнер: FLAC (*.flac)
Тип рипа: tracks
Разрядность: 24/44,1
Формат: WAV (flac.ape.wv)
Количество каналов: 2.0
Код: Выделить всё
foobar2000 1.3.7 / Замер динамического диапазона (DR) 1.1.1
Дата отчёта:  2016-11-05 17:26:45
--------------------------------------------------------------------------------
Анализ:   Lady Gaga / Joanne
--------------------------------------------------------------------------------
DR         Пики         RMS           Продолжительность трека
--------------------------------------------------------------------------------
DR5        0.00 дБ    -7.57 дБ      3:30 01-Diamond Heart
DR7        0.00 дБ    -9.03 дБ      3:28 02-A-YO
DR8        0.00 дБ   -11.08 дБ      3:17 03-Joanne
DR5        0.00 дБ    -7.10 дБ      2:54 04-John Wayne
DR6       -2.43 дБ   -10.00 дБ      3:27 05-Dancin' In Circles
DR6        0.00 дБ    -8.41 дБ      3:02 06-Perfect Illusion
DR7        0.00 дБ   -11.08 дБ      3:25 07-Million Reasons
DR7        0.00 дБ    -9.02 дБ      3:43 08-Sinner's Prayer
DR6        0.00 дБ    -8.41 дБ      4:15 09-Come To Mama
DR8        0.00 дБ    -9.38 дБ      4:15 10-Hey Girl
DR9       -2.05 дБ   -13.44 дБ      3:49 11-Angel Down
DR8        0.00 дБ   -11.82 дБ      3:00 12-Grigio Girls
DR10       0.00 дБ   -11.73 дБ      2:58 13-Just Another Day
DR8       -1.02 дБ   -12.80 дБ      2:20 14-Angel Down
--------------------------------------------------------------------------------
Количество треков: 14
Реальные значения DR: DR7
Частота:   44100 Гц
Каналов:   2
Разрядность:   24
Битрейт:   1542 кбит/с
Кодек:   FLAC
================================================================================
Источник (релизер): 7digital
Не забывайте говорить Спасибо. Не уходите с раздачи!   
Торрент: Зарегистрирован [05 ноя 2016, 14:29]
Статус:
Проверен
 
.torrent скачан: 0 раз
Хэш: ebdf98d9ce818fc8660877182570f544f147db60
Размер: 576.95 МБ (604 975 377 байт)
   Стать Автором раздачи
   
Цитата

Вернуться в Поп-музыка (Hi-Res stereo)

Кто сейчас на конференции

Сейчас эту тему просматривают: нет зарегистрированных пользователей и гости: 1