[TR24][OF] Barbra Streisand (with The Columbia Symphony Orchestra and Claus Ogerman) - Classical Barbra - 1976/2013 (Pop, Vocal, Classical)

 Статистика раздачи 
Размер: 816.46 МБ   |  Зарегистрирован: 21 июл 2015, 09:32   |   .torrent скачан: 0 раз
Сидеров: 0  [ 0 байт/сек ]     Личеров: 0  [ 0 байт/сек ]  
  
Аватара пользователя
Главный редактор
Главный редактор
 
Раздал: 90.01 ТБ
Скачал: 3.78 ТБ
Ратио: 24.248
Сообщения: 273876
Стаж: 9 лет 1 месяц 14 дней
Откуда: Санкт-Петербург

Barbra Streisand
Classical Barbra

Год издания/переиздания диска: 1976/2013
Жанр: Pop, Vocal, Classical
Издатель: Masterworks
Продолжительность: 00:40:14
Наличие сканов: Sleeve, Digital Booklet

Контейнер: FLAC (*.flac)
Тип рипа: tracks
Разрядность: 24bit / 88.2kHz
Количество каналов: 2.0
Claude Debussy (1862-1918)

01. Beau Soir (2:42)
Joseph Canteloube (1879-1957)
02. Brezairola - Berceuse (3:47)
Hugo Wolf (1869-1903)
03. Verschwiegene Liebe (2:57)
Gabriel Fauré (1845-1924)
04. Pavane (Vocalise) (5:28)
05. Apres un Reve (3:25)
Carl Orff (1895-1982)
06. In Trutina from Carmina Burana (2:12)
George Frideric Handel (1685-1759)
07. Lascia ch'io pianga from Rinaldo (3:38)
Robert Schumann (1810-1856)
08. Mondnacht (3:54)
George Frideric Handel (1685-1759)
09. Dank sei Dir, Herr (3:45)
Claus Ogerman (1930-)
10. I Loved You (2:22)
Franz Schubert (1797–1828)
11. An Sylvia, D.891 (2:50)
12. Auf dem wasser zu singen, D.774 (3:14)
Though best known as one of the preeminent pop singers of our time, Barbra Streisand made a powerful statement in the classical music realm when she recorded Classical Barbra in 1973. Originally released in 1976, the album gained Streisand a raft of admirers in the classical music world. Glenn Gould called her voice 'one of the natural wonders of the age, an instrument of infinite diversity and timbral resource.' Classical Barbra was one of the first and is still one of the greatest records in the category we know today as “classical crossover” and is available February 5th, 2013 from Sony Masterworks.
Of the reissue, Ms. Streisand says, “I have always had a special affection for Classical Barbra. I loved the process of developing and making the recording, and I was gratified by the success it had when it was originally released and, what a thrill it was to receive a Grammy nomination in the Classical division...Now it is back in a new expanded edition, beautifully remastered and sounding better than it has since the LP release. I’m also pleased that we could include two bonus tracks that have never before been available. They remind me again how rewarding this whole project was.'
Fifteen-time Grammy-winning producer Steven Epstein has remastered the original recording for this new release, the first reissue of the now-classic album since it became available on CD a quarter of a century ago. In addition to the original 10 songs, it now includes two previously unreleased bonus tracks recorded during the original sessions. Both new tracks are two songs composed by Franz Schubert – “An Sylvia” and “Auf dem wasser zu singen” – which offer the unique opportunity to hear Streisand’s amazing voice with a piano as its only accompaniment.
Comprised of art songs and arias by a range of European composers, from George Frideric Handel and Robert Schumann to Claude Debussy and Gabriel Fauré, Classical Barbra rose to No. 46 on the Billboard Top 200 chart in 1976 and is certified gold in the U.S. Accompanied by the Columbia Symphony Orchestra conducted by Claus Ogerman, Streisand sings in English, French, German, Italian, Latin, and (in Joseph Canteloube's 'Brezairola') in a European provincial dialect called Occitan. Other gems include Fauré's Pavane, songs that include Debussy's 'Beau Soir' and Robert Schumann's 'Mondnacht,' as well as the arias 'Lascia ch'io pianga' from Händel's opera Rinaldo, and 'In Trutina' from Carl Orff's Carmina Burana.
In the original liner notes Leonard Bernstein wrote, 'Barbra Streisand's natural ability to make music takes her over to the classical field with extraordinary ease. It's clear that she loves these songs. In her sensitive, straightforward and enormously appealing performance, she has given us a very special musical experience.'
More recently, New York Times classical music critic Anthony Tommasini said of Streisand that 'her ability to shape a phrase with velvety legato and find the right expressive coloring for each note and each word is the epitome of cultured vocalism.'
Personnel:
Barbra Streisand, soprano
The Columbia Symphony Orchestra
Claus Ogerman, conductor
Produced by Claus Ogerman
Digitally remastered
Код: Выделить всё
foobar2000 1.3.8 / Dynamic Range Meter 1.1.1
log date: 2015-07-21 12:10:25
--------------------------------------------------------------------------------
Analyzed: Barbra Streisand / Classical Barbra
--------------------------------------------------------------------------------
DR         Peak         RMS     Duration Track
--------------------------------------------------------------------------------
DR10      -1.67 dB   -17.11 dB      2:42 01-Beau Soir
DR10      -5.36 dB   -18.65 dB      3:47 02-Brezairola - Berceuse
DR10      -4.13 dB   -19.44 dB      2:57 03-Verschwiegene Liebe
DR9       -0.38 dB   -12.87 dB      5:28 04-Pavane (Vocalise)
DR9       -0.41 dB   -13.66 dB      3:25 05-Apres un Reve
DR9       -3.67 dB   -16.16 dB      2:12 06-In Trutina from Carmina Burana
DR8       -2.51 dB   -15.34 dB      3:38 07-Lascia ch'io pianga from Rinaldo
DR9       -3.17 dB   -17.21 dB      3:54 08-Mondnacht
DR8       -3.25 dB   -15.22 dB      3:45 09-Dank sei Dir, Herr
DR10      -3.84 dB   -17.95 dB      2:22 10-I Loved You
DR10      -0.98 dB   -16.20 dB      2:50 11-An Sylvia, D.891
DR11      -0.18 dB   -15.82 dB      3:14 12-Auf dem wasser zu singen, D.774
--------------------------------------------------------------------------------
Number of tracks:  12
Official DR value: DR10
Samplerate:        88200 Hz
Channels:          2
Bits per sample:   24
Bitrate:           2664 kbps
Codec:             FLAC
================================================================================
При скачивании, если необходимо, переименуйте папку, в которой будет находиться альбом
Большая просьба к скачавшим поддерживать раздачу! Помогайте другим, ведь вам тоже может понадобиться помощь!
Не забываем говорить "Спасибо"!
Комментарии приветствуются!
Barbra Streisand Hi-Res[/spoiler]
Не забывайте говорить Спасибо. Не уходите с раздачи!   
Торрент: Зарегистрирован [21 июл 2015, 09:32]
Статус:
Проверен
 
.torrent скачан: 0 раз
Хэш: 5d0b1012c014d4dc6651946537765aef94480cdb
Размер: 816.46 МБ (856 116 745 байт)
   Стать Автором раздачи
   
Цитата

Вернуться в Поп-музыка (Hi-Res stereo)

Кто сейчас на конференции

Сейчас эту тему просматривают: нет зарегистрированных пользователей и гости: 1