[TR24][OF] Lara Fabian - Camouflage - 2017 (Pop)

 Статистика раздачи 
Размер: 834.88 МБ   |  Зарегистрирован: 11 окт 2017, 19:51   |   .torrent скачан: 0 раз
Сидеров: 0  [ 0 байт/сек ]     Личеров: 0  [ 0 байт/сек ]  
  
Аватара пользователя
Главный редактор
Главный редактор
 
Раздал: 90.01 ТБ
Скачал: 3.78 ТБ
Ратио: 24.248
Сообщения: 274856
Стаж: 9 лет 1 месяц 20 дней
Откуда: Санкт-Петербург
СообщениеДобавлено: 11 окт 2017, 19:51


Lara Fabian - Camouflage
Формат записи/Источник записи: [TR24][OF]
Наличие водяных знаков: Нет
Год издания/переиздания диска: 2017
Жанр: Pop
Издатель (лейбл): 9 Productions
Продолжительность: 40:35
Наличие сканов в содержимом раздачи: Только обложка альбома
Треклист:
01. Growing Wings (2:58)
02. Chameleon (3:19)
03. If I Let You Love Me (3:36)
04. Choose What You Love Most (Let It Kill You) (3:53)
05. We Are The Flyers (4:05)
06. Painting In The Rain (3:28)
07. Camouflage (3:12)
08. I'm Breakable (2:36)
09. Keep The Animals Away (3:32)
10. We Are The Storm (3:40)
11. Perfect (3:01)
12. Communify (3:16)
 
Camouflage is the thirteenth studio album and Fabian's fifth English album. The album was released on October 6, 2017. The first single from the album, "Growing Wings", was released on August 4, 2017.
Fabian is set to embark on the Camouflage World Tour in February 2018. The tour will bring music from the album to the stage, together with her international hits for 40 dates across the world, ending in Paris in June 2018.

Контейнер: FLAC (*.flac)
Тип рипа: tracks
Разрядность: 24/96
Формат: PCM
Количество каналов: 2.0
Код: Выделить всё
foobar2000 1.3.9 / Dynamic Range Meter 1.1.1
log date: 2017-10-11 22:44:51
--------------------------------------------------------------------------------
Analyzed: Lara Fabian / Camouflage
--------------------------------------------------------------------------------
DR         Peak         RMS     Duration Track
--------------------------------------------------------------------------------
DR5       -0.10 dB    -7.31 dB      2:58 01-Growing Wings
DR5        0.00 dB    -6.87 dB      3:19 02-Chameleon
DR6       -0.03 dB    -8.84 dB      3:36 03-If I Let You Love Me
DR5       -0.03 dB    -7.99 dB      3:53 04-Choose What You Love Most (Let It Kill You)
DR7       -0.10 dB    -9.32 dB      4:05 05-We Are The Flyers
DR5        0.00 dB    -7.62 dB      3:28 06-Painting In The Rain
DR5       -0.10 dB    -8.25 dB      3:12 07-Camouflage
DR5       -0.10 dB    -7.85 dB      2:36 08-I'm Breakable
DR5        0.00 dB    -7.43 dB      3:32 09-Keep The Animals Away
DR5        0.00 dB    -7.75 dB      3:40 10-We Are The Storm
DR6       -0.03 dB    -8.88 dB      3:01 11-Perfect
DR5       -0.10 dB    -6.33 dB      3:16 12-Communify
--------------------------------------------------------------------------------
Number of tracks:  12
Official DR value: DR5
Samplerate:        96000 Hz
Channels:          2
Bits per sample:   24
Bitrate:           3020 kbps
Codec:             FLAC
================================================================================
Источник: prostudiomasters.com[/spoiler]
Не забывайте говорить Спасибо. Не уходите с раздачи!   
Торрент: Зарегистрирован [11 окт 2017, 19:51]
Статус:
Проверен
 
.torrent скачан: 0 раз
Хэш: 3827b16be944e0a06d6e133baf81e76c2119f355
Размер: 834.88 МБ (875 437 535 байт)
   Стать Автором раздачи
   
Цитата
  • Похожие торренты
    Ответы
    Просмотры
    Последнее сообщение

Вернуться в Поп-музыка (Hi-Res stereo)

Кто сейчас на конференции

Сейчас эту тему просматривают: нет зарегистрированных пользователей и гости: 1