[TR24][OF] Stacy Lattisaw - Sneakin' Out - 1982/2013 (Disco)

 Статистика раздачи 
Размер: 828.91 МБ   |  Зарегистрирован: 30 янв 2018, 12:16   |   .torrent скачан: 0 раз
Сидеров: 0  [ 0 байт/сек ]     Личеров: 0  [ 0 байт/сек ]  
  
Аватара пользователя
Главный редактор
Главный редактор
 
Раздал: 90.01 ТБ
Скачал: 3.78 ТБ
Ратио: 24.248
Сообщения: 274106
Стаж: 9 лет 1 месяц 17 дней
Откуда: Санкт-Петербург
СообщениеДобавлено: 30 янв 2018, 12:16


Stacy Lattisaw - Sneakin' Out
Формат записи/Источник записи: [TR24][OF]
Наличие водяных знаков: Нет
Год издания/переиздания диска: 1982/2013
Жанр: Disco
Издатель (лейбл): Rhino Atlantic
Продолжительность: 41:01
Наличие сканов в содержимом раздачи: Только обложка альбома
Треклист:
01. Sneakin' Out (5:47)
02. Guys Like You (Give Love A Bad Name) (4:05)
03. Memories (4:12)
04. Tonight I'm Gonna Make You Mine (3:07)
05. Hey There Lonely Boy (3:55)
06. Don't Throw It All Away (4:07)
07. Attack Of The Name Game (6:23)
08. I'm Down For You (5:08)
09. I Could Love You So Divine (4:16)
 
Stacy Lattisaw's third set, Sneakin' Out, produced by Narada Michael Walden and it is a winner. Everything works on this album. The ballads are quite stunning. They include some of her best ; Her cover of HEY THERE LONELY BOY, MEMORIES, DON'T THROW IT ALL AWAY (previously done by Olivia Newton John on one of her '70s LP) and the touching I COULD LOVE YOU SO DIVINE.
Pop touches can be found on the delicious Motown-inspired TONIGHT (I'M GONNA MAKE YOU MINE) and the pop-ish GUYS LIKE YOU (GIVE LOVE A BAD NAME).
But any Lattisaw album wouldn't be complete without the banging dance tracks - and I love the ones on this album. SNEAKIN' OUT is fun and adventurous, ATTACK OF THE NAME GAME (with the great PATRICK COWLEY on synths) is funny and very catchy. It's a bit on the novelty side, but who cares? I'M DOWN FOR YOU is heavy and funky - it also features a great conga solo by Sheila E.
When she was a teenager in the early '80s, urban soul singer Stacy Lattisaw had a string of Top 40 R&B hits, with three songs — "Let Me Be Your Angel," "Love on a Two Way Street," and "Miracles" — crossing over to the pop mainstream. Lattisaw recorded her first album for Cotillion Records at the age of 12 in 1979, under the direction of producer Van McCoy. However, it wasn't until she hooked up with Narada Michael Walden, a former drummer with the Mahavishnu Orchestra who was just beginning a career as a producer, that she became a star. Under Walden's direction, she had five hit albums between 1981 and 1986.
She continued recording into the late '80s, signing to Motown in 1986, but her audience slowly disappeared. By the early '90s, she decided to retire from a music career and concentrate on raising her family.

Контейнер: FLAC (*.flac)
Тип рипа: tracks
Разрядность: 24/96
Формат: PCM
Количество каналов: 2.0
Код: Выделить всё
foobar2000 1.3.9 / Dynamic Range Meter 1.1.1
log date: 2018-01-30 15:06:21
--------------------------------------------------------------------------------
Analyzed: Stacy Lattisaw / Sneakin' Out
--------------------------------------------------------------------------------
DR         Peak         RMS     Duration Track
--------------------------------------------------------------------------------
DR15      -0.15 dB   -17.17 dB      5:47 01-Sneakin' Out
DR14      -0.14 dB   -16.21 dB      4:05 02-Guys Like You (Give Love A Bad Name)
DR13      -1.60 dB   -17.84 dB      4:12 03-Memories
DR13      -0.71 dB   -16.74 dB      3:07 04-Tonight I'm Gonna Make You Mine
DR12      -0.62 dB   -15.50 dB      3:55 05-Hey There Lonely Boy
DR13      -0.23 dB   -16.53 dB      4:07 06-Don't Throw It All Away
DR15      -0.01 dB   -16.35 dB      6:23 07-Attack Of The Name Game
DR15      -0.73 dB   -16.87 dB      5:08 08-I'm Down For You
DR12      -1.45 dB   -16.11 dB      4:16 09-I Could Love You So Divine
--------------------------------------------------------------------------------
Number of tracks:  9
Official DR value: DR14
Samplerate:        96000 Hz
Channels:          2
Bits per sample:   24
Bitrate:           2819 kbps
Codec:             FLAC
================================================================================
Источник: hdtracks.com[/spoiler]
Не забывайте говорить Спасибо. Не уходите с раздачи!   
Торрент: Зарегистрирован [30 янв 2018, 12:16]
Статус:
Проверен
 
.torrent скачан: 0 раз
Хэш: cb9ab6860aad11ceca505cd34351786830692d60
Размер: 828.91 МБ (869 171 177 байт)
   Стать Автором раздачи
   
Цитата

Вернуться в Поп-музыка (Hi-Res stereo)

Кто сейчас на конференции

Сейчас эту тему просматривают: нет зарегистрированных пользователей и гости: 1