[TR24][OF] Claudine Longet - Colours (Remastered) - 1968/2018 (Pop, Easy Listening)

 Статистика раздачи 
Размер: 692.84 МБ   |  Зарегистрирован: 21 июл 2018, 08:27   |   .torrent скачан: 0 раз
Сидеров: 0  [ 0 байт/сек ]     Личеров: 0  [ 0 байт/сек ]  
  
Аватара пользователя
Главный редактор
Главный редактор
 
Раздал: 90.01 ТБ
Скачал: 3.78 ТБ
Ратио: 24.248
Сообщения: 274106
Стаж: 9 лет 1 месяц 17 дней
Откуда: Санкт-Петербург

Claudine Longet - Colours
Формат записи/Источник записи: [TR24][OF]
Наличие водяных знаков: Нет
Издание: Remastered
Год издания/переиздания диска: 1968/2018
Жанр: Pop, Easy Listening
Издатель (лейбл): A&M Records
Продолжительность: 00:32:12
Контейнер: FLAC (*.flac)
Тип рипа: tracks
Разрядность: 24/96
Формат: PCM
Количество каналов: 2.0
Источник (релизер): qobuz.com
Треклист:
01. Scarborough Fair/Canticle
02. Pussywillows, Cat-Tails
03. Catch The Wind
04. Colours
05. For Bobbie (For Baby)
06. I Believed It All
07. Am I Blue?
08. Hurry On Down
09. Let It Be Me (Je T'Appartiens)
10. Both Sides Now
11. I Think It's Gonna Rain Today
Claudine Longet - vocals
Ron Elliott - guitar
Lincoln Mayorga - keyboards
Randy Newman - piano
Bill Cunningham - fiddle
Lyle Ritz - bass
Jim Gordon - drums
Nick DeCaro - horns & strings arrangement
Код: Выделить всё
foobar2000 1.3.17 / Замер динамического диапазона (DR) 1.1.1
Дата отчёта:  2018-07-21 12:19:08
--------------------------------------------------------------------------------
Анализ:   Claudine Longet / Colours (Remastered)
--------------------------------------------------------------------------------
DR         Пики         RMS           Продолжительность трека
--------------------------------------------------------------------------------
DR12      -2.24 дБ   -18.25 дБ      3:16 01-Scarborough Fair Canticle
DR12      -4.12 дБ   -20.48 дБ      2:55 02-Pussywillows, Cat-Tails
DR12      -1.03 дБ   -16.27 дБ      2:34 03-Catch The Wind
DR12      -1.98 дБ   -17.02 дБ      2:57 04-Colours
DR12      -1.14 дБ   -17.33 дБ      2:28 05-For Bobbie (For Baby)
DR11      -2.55 дБ   -17.95 дБ      2:39 06-I Believed It All
DR12      -2.06 дБ   -17.68 дБ      3:15 07-Am I Blue
DR13      -2.48 дБ   -20.19 дБ      2:11 08-Hurry On Down
DR11      -1.40 дБ   -16.27 дБ      2:38 09-Let It Be Me (Je T'Appartiens)
DR14      -0.20 дБ   -17.08 дБ      3:54 10-Both Sides Now
DR13      -2.46 дБ   -21.03 дБ      3:26 11-I Think It's Gonna Rain Today
--------------------------------------------------------------------------------
Количество треков: 11
Реальные значения DR: DR12
Частота:  96000 Гц
Каналов:  2
Разрядность:   24
Битрейт:  2910 кбит/с
Кодек:   FLAC
================================================================================
A funny thing happened to easy listening pop around 1968: many of the studio musicians in Los Angeles and New York got turned on to the same hip new sounds as everyone else, and for a brief period, the middle of the road got gently psychedelicized. This led to oddball goodies like the fragmentary, dreamlike The Secret Life of Harpers Bizarre, those weird records where Sebastian Cabot and William Shatner were intoning Bob Dylan like he was Shakespeare, and Claudine Longet's Colours. Previously preferring Europop schmaltz like Paul Mauriat's "Love Is Blue," Longet stretches out to include two of Donovan's early folky tunes, "Catch the Wind" and the title track, a delicate acoustic reading of Gordon Lightfoot's "Pussywillows, Cat-Tails" that's really quite lovely, and perhaps most surprisingly, a tender recasting of the Everly Brothers' "Let It Be Me" with a coda featuring new French lyrics penned by Longet herself. Not everything works: the opening version of "Scarborough Fair/Canticle" doesn't hint at the complexity of the harmonies of the Simon & Garfunkel original, and Joni Mitchell's "Both Sides Now" skates so dangerously close to tweeness by itself that the addition of Longet's wispy little-girl vocals and prominent lisp sends it over the edge. Longet redeems herself at the album's end, however, with a delicately mournful take on Randy Newman's oft-recorded "I Think It's Going to Rain Today" that features only the composer's piano and Longet's uncharacteristically self-assured vocals. Colours is certainly enjoyable on the shallow, kitschy "ha ha, look at this" level that most modern-day hipsters condescend to, but for true connoisseurs of the style, it's probably Claudine Longet's best album.
Не забывайте говорить Спасибо. Не уходите с раздачи!   
Торрент: Зарегистрирован [21 июл 2018, 08:27]
Статус:
Проверен
 
.torrent скачан: 0 раз
Хэш: 16f42751f1ad3a71d7373273f454aa785184c0d4
Размер: 692.84 МБ (726 490 693 байт)
   Стать Автором раздачи
   
Цитата

Вернуться в Поп-музыка (Hi-Res stereo)

Кто сейчас на конференции

Сейчас эту тему просматривают: нет зарегистрированных пользователей и гости: 1