[TR24][OF] New Order - Power, Corruption & Lies (Remastered) - 1983/2016 (Synth-Pop, New Wave, Post-Punk)

 Статистика раздачи 
Размер: 936.04 МБ   |  Зарегистрирован: 14 янв 2018, 15:11   |   .torrent скачан: 0 раз
Сидеров: 0  [ 0 байт/сек ]     Личеров: 0  [ 0 байт/сек ]  
  
Аватара пользователя
Главный редактор
Главный редактор
 
Раздал: 90.01 ТБ
Скачал: 3.78 ТБ
Ратио: 24.248
Сообщения: 273485
Стаж: 9 лет 1 месяц 10 дней
Откуда: Санкт-Петербург

New Order - Power, Corruption & Lies
Формат записи/Источник записи: [TR24][OF]
Наличие водяных знаков: Нет
Издание: Remastered
Год издания/переиздания диска: 1983/2016
Жанр: Synth-Pop, New Wave, Post-Punk
Издатель (лейбл): Warner Music Group
Продолжительность: 42:34
Наличие сканов в содержимом раздачи: Только обложка альбома
Треклист:
01. Age Of Consent (5:15)
02. We All Stand (5:14)
03. The Village (4:37)
04. 5-8-6 (7:30)
05. Your Silent Face (6:00)
06. Ultraviolence (4:51)
07. Ecstasy (4:26)
08. Leave Me Alone (4:42)
Personnel:
Bernard Sumner - vocals, guitars, melodica, synthesizers, programming
Peter Hook - 4- and 6-stringed bass, electronic percussion
Stephen Morris - drums, synthesizers, programming
Gillian Gilbert - synthesizers, programming, guitars
 
A great leap forward from their funereal debut album, Power, Corruption & Lies cemented New Order's place as the most exciting dance-rock hybrid in music (and it didn't even include the massive "Blue Monday" single, released earlier that year). Confident and invigorating where Movement had sounded disconsolate and lost, the record simply pops with energy from the beginning "Age of Consent," an alternative pop song with only a smattering of synthesizers overlaying an assured Bernard Sumner, who took his best vocal turn yet. Unlike the hordes of synth pop acts then active, New Order experimented heavily with their synthesizers and sequencers. What's more, while most synth pop acts kept an eye on the charts when writing and recording, if New Order were looking anywhere (aside from within), it was the clubs "The Village" and "586" had most of the technological firepower of the mighty "Blue Monday." But whenever the electronics threatened to take over, Peter Hook's grubby basslines, Bernard Sumner's plaintive vocals, and Stephen Morris' point-perfect drum fills reintroduced the human element. Granted, they still had the will for moodiness; the second track was "We All Stand," over five minutes of dubbed-out melancholia. Aside from all the bright dance music and production on display, Power, Corruption & Lies also portrayed New Order's growing penchant for beauty: "Your Silent Face" is a sublime piece of electronic balladry.

Контейнер: FLAC (*.flac)
Тип рипа: tracks
Разрядность: 24/96
Формат: PCM
Количество каналов: 2.0
Код: Выделить всё
foobar2000 1.3.9 / Dynamic Range Meter 1.1.1
log date: 2018-01-14 18:08:41
--------------------------------------------------------------------------------
Analyzed: New Order / Power, Corruption & Lies
--------------------------------------------------------------------------------
DR         Peak         RMS     Duration Track
--------------------------------------------------------------------------------
DR7       -0.81 dB    -9.36 dB      5:15 01-Age Of Consent
DR9       -0.81 dB   -12.58 dB      5:14 02-We All Stand
DR9       -0.81 dB   -10.85 dB      4:37 03-The Village
DR9       -0.81 dB   -12.02 dB      7:30 04-5-8-6
DR7       -0.81 dB   -10.05 dB      6:00 05-Your Silent Face
DR10      -0.81 dB   -11.88 dB      4:51 06-Ultraviolence
DR8       -0.81 dB   -11.06 dB      4:26 07-Ecstasy
DR9       -1.31 dB   -12.53 dB      4:42 08-Leave Me Alone
--------------------------------------------------------------------------------
Number of tracks:  8
Official DR value: DR9
Samplerate:        96000 Hz
Channels:          2
Bits per sample:   24
Bitrate:           3090 kbps
Codec:             FLAC
================================================================================
Источник: highresaudio.com[/spoiler]
Не забывайте говорить Спасибо. Не уходите с раздачи!   
Торрент: Зарегистрирован [14 янв 2018, 15:11]
Статус:
Проверен
 
.torrent скачан: 0 раз
Хэш: 5e93f461c96c8452ef41b92a4f59c0cfe91cef5a
Размер: 936.04 МБ (981 507 589 байт)
   Стать Автором раздачи
   
Цитата

Вернуться в Поп-музыка (Hi-Res stereo)

Кто сейчас на конференции

Сейчас эту тему просматривают: нет зарегистрированных пользователей и гости: 1