[TR24][OF] Prince - Art Official Age - 2014 (R&B, Electro-funk)

 Статистика раздачи 
Размер: 605.2 МБ   |  Зарегистрирован: 30 май 2015, 14:18   |   .torrent скачан: 0 раз
Сидеров: 0  [ 0 байт/сек ]     Личеров: 0  [ 0 байт/сек ]  
  
Аватара пользователя
Главный редактор
Главный редактор
 
Раздал: 90.01 ТБ
Скачал: 3.78 ТБ
Ратио: 24.248
Сообщения: 273485
Стаж: 9 лет 1 месяц 10 дней
Откуда: Санкт-Петербург
СообщениеДобавлено: 30 май 2015, 14:18


Prince
ART OFFICIAL AGE

Год издания: 2014
Жанр: R&B, Electro-funk
Издатель (лейбл): Warner Bros.
Продолжительность: 00:53:22
Наличие сканов: Sleeve


01. ART OFFICIAL CAGE (3:42)
02. CLOUDS (4:34)
03. BREAKDOWN (4:04)
04. THE GOLD STANDARD (5:53)
05. U KNOW (3:57)
06. BREAKFAST CAN WAIT (3:55)
07. THIS COULD BE US (5:12)
08. WHAT IT FEELS LIKE (3:54)
09. affirmation I & II (0:40)
10. WAY BACK HOME (3:05)
11. FUNKNROLL (4:08)
12. TIME (6:50)
13. affirmation III (3:28)


Контейнер: FLAC (*.flac)
Тип рипа: tracks
Разрядность: 24bit / 44.1kHz
Количество каналов: 2.0

Prince revitalized — "...his most energetic, focused and engaged effort in years." — PopMatters
"If you're looking for a freaky good time, Art Official is your ticket.... An exquisite Prince R&B album." — Los Angeles Times
As an original whole, Art Official Age is Prince's most complete, most consistent and most contemporary album in a minute, writes Exclaim. Art Official Age is one of two albums from Prince released on the same day — this one solo and PlectrumElectrum with his long-gestating female band 3rdEyeGirl. Self-produced, containing funk, R&B, and soul influences, Art Official Age is Prince sounding not just relevant, but renewed, says the Chicago Tribune.
All of this is solid news for The Purple One; indeed throughout his five-decade musical career he's emerged as one of the most singular talents of the rock 'n' roll era, capable of seamlessly tying together pop, funk, folk and rock. The result has been 10 platinum albums and 30 Top 40 singles. With each album he's released, Prince has shown remarkable stylistic growth and musical diversity, constantly experimenting with different sounds, textures and genres.
On Art Official Age the melodies are immediate and prominent as ever and Prince's vocals are rich and solid, taking full advantage of his vocal range with decidedly seductive lyrics.
Time points out the Prince renaissance; ever since The Purple One started using Twitter via the account of his current all-female backing trio, 3rdEyeGirl, last August, he's been writing, performing and operating as a public figure with renewed vitality: Guest spots for other artists such as Janelle Monaé, a hilarious appearance on TV's "New Girl" — "The final piece is new music, and he's finally delivered with two new full-lengths dropping in tandem: there's Art Official Age, a solo record, and PlectrumElectrum, released as Prince & 3rdEyeGirl.
"In keeping with his larger resurgence, some of the best music Prince has recorded in years is spread across the two records. Even the failures contained within are interesting, which is more than one can say about Planet Earth or 20Ten." Art Official Age is built around a loosely applied narrative — Prince has been placed into suspended animation and has been revived 45 years in the future. "It's light, crisp, expertly sung and consistently fun; it finds Prince engaging in a dialogue with contemporary pop music he hasn't managed in a long time." — Time, Sept. 30, 2014
Код: Выделить всё
foobar2000 1.2.2 / Dynamic Range Meter 1.1.1
log date: 2015-05-30 16:57:50
--------------------------------------------------------------------------------
Analyzed: Prince / ART OFFICIAL AGE
--------------------------------------------------------------------------------
DR         Peak         RMS     Duration Track
--------------------------------------------------------------------------------
DR6        0.00 dB    -7.52 dB      3:42 ?-ART OFFICIAL CAGE
DR8        0.00 dB    -8.72 dB      4:34 ?-CLOUDS
DR4       -0.20 dB    -7.07 dB      4:04 ?-BREAKDOWN
DR6        0.00 dB    -6.83 dB      5:53 ?-THE GOLD STANDARD
DR6        0.00 dB    -6.59 dB      3:57 ?-U KNOW
DR5       -0.20 dB    -6.72 dB      3:55 ?-BREAKFAST CAN WAIT
DR6        0.00 dB    -7.37 dB      5:12 ?-THIS COULD BE US
DR7        0.00 dB    -8.72 dB      3:54 ?-WHAT IT FEELS LIKE
DR15       0.00 dB   -16.47 dB      0:40 ?-affirmation I & II
DR6       -0.13 dB    -7.44 dB      3:05 ?-WAY BACK HOME
DR5        0.00 dB    -6.14 dB      4:08 ?-FUNKNROLL
DR6        0.00 dB    -8.34 dB      6:50 ?-TIME
DR7        0.00 dB    -9.31 dB      3:28 ?-affirmation III
--------------------------------------------------------------------------------
Number of tracks:  13
Official DR value: DR7
Samplerate:        44100 Hz
Channels:          2
Bits per sample:   24
Bitrate:           1490 kbps
Codec:             FLAC
================================================================================
При скачивании, если необходимо, переименуйте папку, в которой будет находиться альбом
Большая просьба к скачавшим поддерживать раздачу! Помогайте другим, ведь вам тоже может понадобиться помощь!
Не забываем говорить "Спасибо"!
Комментарии приветствуются!
Prince Hi-Res[/spoiler]
Не забывайте говорить Спасибо. Не уходите с раздачи!   
Торрент: Зарегистрирован [30 май 2015, 14:18]
Статус:
Проверен
 
.torrent скачан: 0 раз
Хэш: c5f01d3b26f6d30319f5191f315b3541e3be1382
Размер: 605.2 МБ (634 593 550 байт)
   Стать Автором раздачи
   
Цитата

Вернуться в Поп-музыка (Hi-Res stereo)

Кто сейчас на конференции

Сейчас эту тему просматривают: нет зарегистрированных пользователей и гости: 1