[TR24][OF] Tove Lo - Queen of the Clouds - 2014 (Pop-Rock, Pop, Electronic)

 Статистика раздачи 
Размер: 899.64 МБ   |  Зарегистрирован: 15 окт 2014, 20:25   |   .torrent скачан: 0 раз
Сидеров: 0  [ 0 байт/сек ]     Личеров: 0  [ 0 байт/сек ]  
  
Аватара пользователя
Главный редактор
Главный редактор
 
Раздал: 90.01 ТБ
Скачал: 3.78 ТБ
Ратио: 24.248
Сообщения: 273485
Стаж: 9 лет 1 месяц 10 дней
Откуда: Санкт-Петербург

TOVE LO
QUEEN of the CLOUDS

Год издания: 2014
Жанр: Pop-Rock, Pop, Electronic
Издатель (лейбл): Universal Music
Продолжительность: 00:43:37
Наличие сканов: Front


01. THE SEX (Intro) (0:06)
02. My Gun (3:37)
03. Like Em Young (3:40)
04. Talking Body (3:58)
05. Timebomb (3:35)
06. THE LOVE (Interlude) (0:05)
07. Moments (3:22)
08. The Way That I Am (3:08)
09. Got Love (3:49)
10. Not On Drugs (3:02)
11. THE PAIN (Interlude) (0:05)
12. Thousand Miles (3:35)
13. Habits (Stay High) (3:29)
14. This Time Around (4:04)
15. Run On Love (QOTC Edit) (4:01)
Контейнер: FLAC (*.flac)
Тип рипа: tracks
Разрядность: 24bit / 96kHz
Количество каналов: 2.0
Код: Выделить всё
foobar2000 1.2.2 / Замер динамического диапазона (DR) 1.1.1
Дата отчёта: 2014-10-15 23:36:24
--------------------------------------------------------------------------------
Анализ:   Tove Lo / Queen Of The Clouds
--------------------------------------------------------------------------------
DR         Пики          RMS        Продолжительность трека
--------------------------------------------------------------------------------
DR20      -9.12 дБ   -31.76 дБ      0:06 ?-THE SEX (Intro)
DR5        0.00 дБ    -7.88 дБ      3:37 ?-My Gun
DR5        0.00 дБ    -7.88 дБ      3:40 ?-Like Em Young
DR5        0.00 дБ    -7.65 дБ      3:58 ?-Talking Body
DR5        0.00 дБ    -7.13 дБ      3:35 ?-Timebomb
DR14     -14.16 дБ   -31.31 дБ      0:05 ?-THE LOVE (Interlude)
DR5        0.00 дБ    -7.57 дБ      3:22 ?-Moments
DR5        0.00 дБ    -6.60 дБ      3:08 ?-The Way That I Am
DR4        0.00 дБ    -6.62 дБ      3:49 ?-Got Love
DR6        0.00 дБ    -8.47 дБ      3:02 ?-Not On Drugs
DR15     -16.36 дБ   -34.06 дБ      0:05 ?-THE PAIN (Interlude)
DR5        0.00 дБ    -7.71 дБ      3:35 ?-Thousand Miles
DR4        0.00 дБ    -6.12 дБ      3:29 ?-Habits (Stay High)
DR4        0.00 дБ    -6.44 дБ      4:04 ?-This Time Around
DR6        0.00 дБ    -8.17 дБ      4:01 ?-Run On Love (QOTC Edit)
--------------------------------------------------------------------------------
Количество треков: 15
Реальные значения DR: DR7
Частота:  96000 Гц
Каналов:  2
Разрядность:   24
Битрейт:  2883 кбит/с
Кодек:   FLAC
================================================================================
При скачивании, если необходимо, переименуйте папку, в которой будет находиться альбом
Большая просьба к скачавшим поддерживать раздачу! Помогайте другим, ведь вам тоже может понадобиться помощь!
Не забываем говорить "Спасибо"!
Комментарии приветствуются!
[/spoiler]
Не забывайте говорить Спасибо. Не уходите с раздачи!   
Торрент: Зарегистрирован [15 окт 2014, 20:25]
Статус:
Проверен
 
.torrent скачан: 0 раз
Хэш: e946931c55121b5e8e754dccfbff2f210cc4b2f7
Размер: 899.64 МБ (943 345 928 байт)
   Стать Автором раздачи
   
Цитата

Вернуться в Поп-музыка (Hi-Res stereo)

Кто сейчас на конференции

Сейчас эту тему просматривают: нет зарегистрированных пользователей и гости: 1