[TR24][OF] Julio Iglesias - Yo Canto - 1969/2015 (Pop, Latin)

 Статистика раздачи 
Размер: 498.34 МБ   |  Зарегистрирован: 17 авг 2018, 17:41   |   .torrent скачан: 0 раз
Сидеров: 0  [ 0 байт/сек ]     Личеров: 0  [ 0 байт/сек ]  
  
Аватара пользователя
Главный редактор
Главный редактор
 
Раздал: 90.01 ТБ
Скачал: 3.78 ТБ
Ратио: 24.248
Сообщения: 273621
Стаж: 9 лет 1 месяц 12 дней
Откуда: Санкт-Петербург
СообщениеДобавлено: 17 авг 2018, 17:41


Julio Iglesias - Yo Canto
Формат записи/Источник записи: [TR24][OF]
Наличие водяных знаков: Нет
Год издания/переиздания диска: 1969/2015
Жанр: Pop, Latin
Издатель (лейбл): Legacy Recordings
Продолжительность: 40:14
Наличие сканов в содержимом раздачи: Только обложка альбома
Источник: WRZmusic
Магазин: qobuz.com
Треклист:
01. La Vida Sigue Igual (3:38)
02. Tenía una Guitarra (3:12)
03. Bla, Bla, Bla (3:46)
04. El Viejo Pablo (2:59)
05. Hace Unos Años (3:54)
06. No Llores, Mi Amor (2:54)
07. Yo Canto (3:21)
08. Alguien Que Pasó (4:04)
09. Mis Recuerdos (2:45)
10. En un Barrio Que Hay en la Ciudad (2:47)
11. Lágrimas Tiene el Camino (2:26)
12. Chiquilla (4:28) 

Контейнер: FLAC (*.flac)
Тип рипа: tracks
Разрядность: 24/44,1
Формат: PCM
Количество каналов: 2.0
Код: Выделить всё
foobar2000 1.3.9 / Dynamic Range Meter 1.1.1
log date: 2018-08-17 19:12:25
--------------------------------------------------------------------------------
Analyzed: Julio Iglesias / Yo Canto
--------------------------------------------------------------------------------
DR         Peak         RMS     Duration Track
--------------------------------------------------------------------------------
DR11      -0.50 dB   -13.45 dB      3:38 01-La Vida Sigue Igual
DR8       -0.50 dB   -11.12 dB      3:12 02-Tenía una Guitarra
DR10      -0.50 dB   -11.85 dB      3:46 03-Bla, Bla, Bla
DR12      -0.50 dB   -14.40 dB      2:59 04-El Viejo Pablo
DR11      -0.50 dB   -13.50 dB      3:54 05-Hace Unos Años
DR12      -0.50 dB   -14.62 dB      2:54 06-No Llores, Mi Amor
DR11      -0.50 dB   -12.25 dB      3:21 07-Yo Canto
DR13      -0.50 dB   -15.34 dB      4:04 08-Alguien Que Pasó
DR12      -0.50 dB   -14.06 dB      2:45 09-Mis Recuerdos
DR13      -0.50 dB   -15.93 dB      2:47 10-En un Barrio Que Hay en la Ciudad
DR12      -0.50 dB   -14.65 dB      2:26 11-Lágrimas Tiene el Camino
DR11      -0.50 dB   -13.56 dB      4:28 12-Chiquilla
--------------------------------------------------------------------------------
Number of tracks:  12
Official DR value: DR11
Samplerate:        44100 Hz
Channels:          2
Bits per sample:   24
Bitrate:           1710 kbps
Codec:             FLAC
================================================================================
 
Не забывайте говорить Спасибо. Не уходите с раздачи!   
Торрент: Зарегистрирован [17 авг 2018, 17:41]
Статус:
Проверен
 
.torrent скачан: 0 раз
Хэш: 4bbcb3553e8b4d284f0ad0db5420abf54ce750b2
Размер: 498.34 МБ (522 544 101 байт)
   Стать Автором раздачи
   
Цитата
  • Похожие торренты
    Ответы
    Просмотры
    Последнее сообщение

Вернуться в Поп-музыка (Hi-Res stereo)

Кто сейчас на конференции

Сейчас эту тему просматривают: нет зарегистрированных пользователей и гости: 1