[TR24][OF] German Brass - Brass Hommage - 2018 (Pop, Instrumental, Brass Band)

 Статистика раздачи 
Размер: 1.31 ГБ   |  Зарегистрирован: 08 июн 2018, 11:15   |   .torrent скачан: 0 раз
Сидеров: 0  [ 0 байт/сек ]     Личеров: 0  [ 0 байт/сек ]  
  
Аватара пользователя
Главный редактор
Главный редактор
 
Раздал: 90.01 ТБ
Скачал: 3.78 ТБ
Ратио: 24.248
Сообщения: 273876
Стаж: 9 лет 1 месяц 14 дней
Откуда: Санкт-Петербург

German Brass - Brass Hommage
Формат записи/Источник записи: [TR24][OF]
Наличие водяных знаков: Нет
Год издания/переиздания диска: 2018
Жанр: Pop, Instrumental, Brass Band
Издатель (лейбл): Berlin Classics
Продолжительность: 02:05:57
Наличие сканов в содержимом раздачи: Только обложка альбома
Треклист:
01. Also Sprach Zarathustra (3:46)
02. Odysee In Brass (2:56)
03. El Tango la Cumparsita (4:27)
04. Black Bottom Stomp (2:03)
05. It Was A Very Good Year (4:37)
06. Brasileirinho (1:39)
07. Spiritual Rhapsody (11:56)
08. Feliz año Mexico (5:51)
09. Ballade For Two Wings (4:19)
10. Tres Mambos (5:34)
11. As Time Goes By (4:04)
12. ¿Quién Serà? (3:30)
13. El Choclo (4:05)
14. Cornets Chop Suey (3:09)
15. Al son de Cuba (4:01)
16. Spirit Of Brass (Fanfare) (1:33)
17. It's Alright With Me (4:09)
18. Horn Of My Soul (5:31)
19. Fever (3:32)
20. Samba de Rio (6:50)
21. Way Down Yonder (1:48)
22. I'm Coming Virginia (3:20)
23. Bourbon Street Parade (3:37)
24. Camino del Indio (Piedra y Camino) (6:09)
25. Singin' The Blues (4:31)
26. Tico Tico (2:40)
27. Besame mucho (4:04)
28. Adios Pampa mia (3:09)
29. T-Bone Blues (3:50)
30. Oye Como va (5:17)
 
"Brass Hommage" is a tribute to the inimitable sound which has made German Brass famous. It acknowledges the success of an audio vision come true: to create a chamber-music ensemble with ten brass musicians, a group with the sound potential of a mighty organ, a symphony orchestra or a big band – a vision which the German Brass musicians have achieved with the musical elegance that is their very own. Their special arrangements have made them into inventors of a highly refined sound idiom that was to become their hallmark. It is compositions for the organ and symphonic works from the classical field that provide the brass players with inspiration, but jazz standards or South American music deliver an equal appeal and the challenge to expand the palette of tone colours. A tango like "La Cumparsita" can transform into the rhythm of a bandoneon, while music by Cole Porter exudes a touch of Broadway flair, "As Time Goes By" conjures up the power of the images from the legendary film "Casablanca", and a jazz classic like "Bourbon Street Parade" emulates the sound of a Dixieland band from New Orleans.

Контейнер: FLAC (*.flac)
Тип рипа: tracks
Разрядность: 24/48
Формат: PCM
Количество каналов: 2.0
Код: Выделить всё
foobar2000 1.3.9 / Dynamic Range Meter 1.1.1
log date: 2018-06-08 13:46:53
--------------------------------------------------------------------------------
Analyzed: German Brass / Brass Hommage
--------------------------------------------------------------------------------
DR         Peak         RMS     Duration Track
--------------------------------------------------------------------------------
DR9       -1.38 dB   -14.81 dB      3:46 01-Also Sprach Zarathustra
DR11      -1.64 dB   -15.83 dB      2:56 02-Odysee In Brass
DR11      -1.49 dB   -16.46 dB      4:27 03-El Tango la Cumparsita
DR11      -2.16 dB   -15.93 dB      2:03 04-Black Bottom Stomp
DR11      -1.59 dB   -17.36 dB      4:37 05-It Was A Very Good Year
DR12      -1.30 dB   -16.26 dB      1:39 06-Brasileirinho
DR11      -0.84 dB   -16.96 dB     11:56 07-Spiritual Rhapsody
DR11      -0.52 dB   -15.51 dB      5:51 08-Feliz año Mexico
DR11      -3.09 dB   -17.54 dB      4:19 09-Ballade For Two Wings
DR11      -1.50 dB   -15.95 dB      5:34 10-Tres Mambos
DR11      -1.55 dB   -17.50 dB      4:04 11-As Time Goes By
DR10      -1.50 dB   -14.28 dB      3:30 12-¿Quién Serà?
DR12      -1.51 dB   -16.94 dB      4:05 13-El Choclo
DR13      -1.10 dB   -16.67 dB      3:09 14-Cornets Chop Suey
DR10      -1.60 dB   -13.84 dB      4:01 15-Al son de Cuba
DR12      -1.54 dB   -16.80 dB      1:33 16-Spirit Of Brass (Fanfare)
DR12      -2.08 dB   -17.78 dB      4:09 17-It's Alright With Me
DR11      -2.52 dB   -16.26 dB      5:31 18-Horn Of My Soul
DR12      -3.63 dB   -21.40 dB      3:32 19-Fever
DR14      -1.61 dB   -18.97 dB      6:50 20-Samba de Rio
DR14      -1.60 dB   -18.35 dB      1:48 21-Way Down Yonder
DR16      -1.62 dB   -22.23 dB      3:20 22-I'm Coming Virginia
DR15      -0.98 dB   -19.56 dB      3:37 23-Bourbon Street Parade
DR13      -1.60 dB   -20.93 dB      6:09 24-Camino del Indio (Piedra y Camino)
DR13      -1.61 dB   -18.83 dB      4:31 25-Singin' The Blues
DR12      -3.07 dB   -18.75 dB      2:40 26-Tico Tico
DR12      -1.69 dB   -18.95 dB      4:04 27-Besame mucho
DR11      -4.01 dB   -18.23 dB      3:09 28-Adios Pampa mia
DR12      -2.05 dB   -17.89 dB      3:50 29-T-Bone Blues
DR13      -1.61 dB   -17.72 dB      5:17 30-Oye Como va
--------------------------------------------------------------------------------
Number of tracks:  30
Official DR value: DR12
Samplerate:        48000 Hz
Channels:          2
Bits per sample:   24
Bitrate:           1562 kbps
Codec:             FLAC
================================================================================
Источник: highresaudio.com[/spoiler]
Не забывайте говорить Спасибо. Не уходите с раздачи!   
Торрент: Зарегистрирован [08 июн 2018, 11:15]
Статус:
Проверен
 
.torrent скачан: 0 раз
Хэш: f4d1672a348c94a0f88c767fa1b38f6217e488a1
Размер: 1.31 ГБ (1 402 476 105 байт)
   Стать Автором раздачи
   
Цитата
  • Похожие торренты
    Ответы
    Просмотры
    Последнее сообщение

Вернуться в Поп-музыка (Hi-Res stereo)

Кто сейчас на конференции

Сейчас эту тему просматривают: нет зарегистрированных пользователей и гости: 1