[TR24][OF] Soccer Mommy - Clean - 2018 (Indie Pop)

 Статистика раздачи 
Размер: 653.56 МБ   |  Зарегистрирован: 04 июн 2018, 12:43   |   .torrent скачан: 0 раз
Сидеров: 0  [ 0 байт/сек ]     Личеров: 0  [ 0 байт/сек ]  
  
Аватара пользователя
Главный редактор
Главный редактор
 
Раздал: 90.01 ТБ
Скачал: 3.78 ТБ
Ратио: 24.248
Сообщения: 273621
Стаж: 9 лет 1 месяц 12 дней
Откуда: Санкт-Петербург
СообщениеДобавлено: 04 июн 2018, 12:43


Soccer Mommy - Clean
Формат записи/Источник записи: [TR24][OF]
Наличие водяных знаков: Нет
Год издания/переиздания диска: 2018
Жанр: Indie Pop
Издатель (лейбл): Fat Possum Records
Продолжительность: 34:43
Наличие сканов в содержимом раздачи: Только обложка альбома
Треклист:
01. Still Clean (4:02)
02. Cool (3:16)
03. Your Dog (3:14)
04. Flaw (3:42)
05. Blossom (Waiting All My Time) (3:12)
06. Last Girl (3:35)
07. Skin (4:02)
08. Scorpio Rising (4:43)
09. Interlude (1:39)
10. Wildflowers (3:18)
 
'Clean,' is the Debut album proper from Nashville based 20 year old Sophie Allison who records under the name Soccer Mommy. Following on from the critically acclaimed Collection, released in August. Clean was recorded by Gabe wax (Deerhunter, War on Drugs, Beirut) in NYC and mixed by Ali Chant (PJ Harvey, Perfume Genius, Aldous Harding). The album is a big step up production wise, and its the most grown up Allison has sounded to date. Clean will be released physically and digitally on March 2nd.

Контейнер: FLAC (*.flac)
Тип рипа: tracks
Разрядность: 24/96
Формат: PCM
Количество каналов: 2.0
Код: Выделить всё
foobar2000 1.3.9 / Dynamic Range Meter 1.1.1
log date: 2018-06-04 15:31:39
--------------------------------------------------------------------------------
Analyzed: Soccer Mommy / Clean
--------------------------------------------------------------------------------
DR         Peak         RMS     Duration Track
--------------------------------------------------------------------------------
DR10      -0.82 dB   -15.32 dB      4:02 01-Still Clean
DR8       -0.42 dB   -11.39 dB      3:16 02-Cool
DR8       -0.42 dB   -10.34 dB      3:14 03-Your Dog
DR9       -0.42 dB   -13.73 dB      3:42 04-Flaw
DR12      -0.42 dB   -16.05 dB      3:12 05-Blossom (Waiting All My Time)
DR8       -0.42 dB   -10.24 dB      3:35 06-Last Girl
DR8       -0.42 dB   -11.36 dB      4:02 07-Skin
DR8       -0.42 dB   -11.97 dB      4:43 08-Scorpio Rising
DR9       -2.45 dB   -16.50 dB      1:39 09-Interlude
DR9       -0.42 dB   -13.21 dB      3:18 10-Wildflowers
--------------------------------------------------------------------------------
Number of tracks:  10
Official DR value: DR9
Samplerate:        96000 Hz
Channels:          2
Bits per sample:   24
Bitrate:           2648 kbps
Codec:             FLAC
================================================================================
Источник: qobuz.com[/spoiler]
Не забывайте говорить Спасибо. Не уходите с раздачи!   
Торрент: Зарегистрирован [04 июн 2018, 12:43]
Статус:
Проверен
 
.torrent скачан: 0 раз
Хэш: 96d478aed5d130c906d56063c52ccc757ed2310b
Размер: 653.56 МБ (685 305 897 байт)
   Стать Автором раздачи
   
Цитата
  • Похожие торренты
    Ответы
    Просмотры
    Последнее сообщение

Вернуться в Поп-музыка (Hi-Res stereo)

Кто сейчас на конференции

Сейчас эту тему просматривают: нет зарегистрированных пользователей и гости: 1