[TR24][OF] Various Artists - For Discos Only: Indie Dance Music From Fantasy And Vanguard Records 1976-1981 - 2018 (Disco)

 Статистика раздачи 
Размер: 7.68 ГБ   |  Зарегистрирован: 25 авг 2018, 08:40   |   .torrent скачан: 0 раз
Сидеров: 0  [ 0 байт/сек ]     Личеров: 0  [ 0 байт/сек ]  
  
Аватара пользователя
Главный редактор
Главный редактор
 
Раздал: 90.01 ТБ
Скачал: 3.78 ТБ
Ратио: 24.248
Сообщения: 274856
Стаж: 9 лет 1 месяц 20 дней
Откуда: Санкт-Петербург

Various Artists - For Discos Only: Indie Dance Music From Fantasy And Vanguard Records 1976-1981
Формат записи/Источник записи: [TR24][OF]
Наличие водяных знаков: Нет
Год издания/переиздания диска: 2018
Жанр: Disco
Издатель (лейбл): Concord Records, Inc.
Продолжительность: 03:23:19
Наличие сканов в содержимом раздачи: Только обложка альбома
Треклист:
01. Turn The Music Up! (12″ Disco) (The Players Association) (6:51)
02. Over And Over (Special 12″ Disco Mix) (Sylvester) (9:31)
03. Don't Know What To Say (The Blackbyrds) (4:06)
04. Boogie With Me (12″ Disco Mix) (Poussez!) (7:53)
05. Burn Me Up (With Your Love) (12″ Special Remaster) (Frisky) (7:58)
06. Fascinating Woman (The Nobles) (4:37)
07. I'm The One (Rainbow Brown) (6:03)
08. Straight To The Bank (Special 12″ Disco Mix) (Bill Summers And Summers Heat) (7:30)
09. Lookin' For Love (Special 12″ Disco Mix) (Fat Larry's Band) (6:51)
10. For Your Love (Prelude) (Idris Muhammad) (0:50)
11. For Your Love (Special 12″ Disco Mix) (Idris Muhammad) (6:48)
12. No One Can Do It (Like You) (12″ Special Remix) (Carol Williams) (6:53)
13. Chill-Out! (12″ Version) (Free Expression) (5:04)
14. Always There (Special 12″ Disco Mix) (Side Effect) (5:04)
15. I Don't Know What's On Your Mind (Special 12″ Disco Mix) (Spiders Webb) (5:33)
16. It's Music (Special 12″ Disco Mix) (Damon Harris) (8:41)
17. Space Bass (Special 12″ Disco Mix) (Slick) (7:04)
18. Dance (Disco Heat) (Special 12″ Disco Mix) (Sylvester) (8:19)
19. Mondo Man (12″ Version) (Roni Griffith) (4:33)
20. Till You Surrender (Special Remix) (Rainbow Brown) (5:39)
21. Rock Creek Park (Remix) (The Blackbyrds) (6:17)
22. Love Hangover (12″ Disco) (The Players Association) (6:09)
23. Party Vibes (Special 12″ Disco Mix) (Ike Turner, Tina Turner, Home Grown Funk) (8:12)
24. You've Got Me Dancing In My Sleep (Special Remaster) (Frisky) (6:59)
25. Boogie City (Rock And Boogie Down) (Special 12″ Disco Mix) (Phil Hurtt) (6:10)
26. I Got The Feeling (Patrick Cowley MegaMix) (Two Tons O' Fun) (7:14)
27. Savage Lover (Special 12″ Disco Mix / Long Version) (Ring) (6:41)
28. Dance (Special 12″ Disco Mix) (Paradise Express) (8:16)
29. Beat Of The Night (Special 12″ Disco Mix) (Fever) (5:52)
30. Come On And Do It (Special Disco Remix) (Poussez!) (9:47)
31. I Need Somebody To Love Tonight (Disco Mix) (Sylvester) (5:56)
Контейнер: FLAC (*.flac)
Тип рипа: tracks
Разрядность: 24/192
Формат: PCM
Количество каналов: 2.0
Код: Выделить всё
foobar2000 1.3.9 / Dynamic Range Meter 1.1.1
log date: 2018-08-25 10:56:34
--------------------------------------------------------------------------------
Analyzed: Bill Summers And Summers Heat / For Discos Only: Indie Dance Music From Fantasy And Vanguard Records 1976-1981 (1)
          Carol Williams / For Discos Only: Indie Dance Music From Fantasy And Vanguard Records 1976-1981 (2)
          Damon Harris / For Discos Only: Indie Dance Music From Fantasy And Vanguard Records 1976-1981 (3)
          Fat Larry's Band / For Discos Only: Indie Dance Music From Fantasy And Vanguard Records 1976-1981 (4)
          Fever / For Discos Only: Indie Dance Music From Fantasy And Vanguard Records 1976-1981 (5)
          Free Expression / For Discos Only: Indie Dance Music From Fantasy And Vanguard Records 1976-1981 (6)
          Frisky / For Discos Only: Indie Dance Music From Fantasy And Vanguard Records 1976-1981 (7-8)
          Idris Muhammad / For Discos Only: Indie Dance Music From Fantasy And Vanguard Records 1976-1981 (9-10)
          Ike Turner, Tina Turner, Home Grown Funk / For Discos Only: Indie Dance Music From Fantasy And Vanguard Records 1976-1981 (11)
          Paradise Express / For Discos Only: Indie Dance Music From Fantasy And Vanguard Records 1976-1981 (12)
          Phil Hurtt / For Discos Only: Indie Dance Music From Fantasy And Vanguard Records 1976-1981 (13)
          Poussez! / For Discos Only: Indie Dance Music From Fantasy And Vanguard Records 1976-1981 (14-15)
          Rainbow Brown / For Discos Only: Indie Dance Music From Fantasy And Vanguard Records 1976-1981 (16-17)
          Ring / For Discos Only: Indie Dance Music From Fantasy And Vanguard Records 1976-1981 (18)
          Roni Griffith / For Discos Only: Indie Dance Music From Fantasy And Vanguard Records 1976-1981 (19)
          Side Effect / For Discos Only: Indie Dance Music From Fantasy And Vanguard Records 1976-1981 (20)
          Slick / For Discos Only: Indie Dance Music From Fantasy And Vanguard Records 1976-1981 (21)
          Spiders Webb / For Discos Only: Indie Dance Music From Fantasy And Vanguard Records 1976-1981 (22)
          Sylvester / For Discos Only: Indie Dance Music From Fantasy And Vanguard Records 1976-1981 (23-25)
          The Blackbyrds / For Discos Only: Indie Dance Music From Fantasy And Vanguard Records 1976-1981 (26-27)
          The Nobles / For Discos Only: Indie Dance Music From Fantasy And Vanguard Records 1976-1981 (28)
          The Players Association / For Discos Only: Indie Dance Music From Fantasy And Vanguard Records 1976-1981 (29-30)
          Two Tons O' Fun / For Discos Only: Indie Dance Music From Fantasy And Vanguard Records 1976-1981 (31)
--------------------------------------------------------------------------------
DR         Peak         RMS     Duration Track
--------------------------------------------------------------------------------
DR13      -0.50 dB   -15.36 dB      7:30 08-Straight To The Bank (Special 12″ Disco Mix)
DR14      -0.50 dB   -16.03 dB      6:53 12-No One Can Do It (Like You) (12″ Special Remix)
DR12      -0.33 dB   -13.73 dB      8:41 16-It's Music (Special 12″ Disco Mix)
DR12      -0.52 dB   -14.48 dB      6:51 09-Lookin' For Love (Special 12″ Disco Mix)
DR10      -0.50 dB   -11.83 dB      5:52 29-Beat Of The Night (Special 12″ Disco Mix)
DR13      -0.50 dB   -15.37 dB      5:04 13-Chill-Out! (12″ Version)
DR11      -0.50 dB   -14.13 dB      7:58 05-Burn Me Up (With Your Love) (12″ Special Remaster)
DR13      -0.30 dB   -14.80 dB      6:59 24-You've Got Me Dancing In My Sleep (Special Remaster)
DR11      -6.76 dB   -21.04 dB      0:50 10-For Your Love (Prelude)
DR14      -0.50 dB   -16.32 dB      6:48 11-For Your Love (Special 12″ Disco Mix)
DR12      -0.50 dB   -14.77 dB      8:12 23-Party Vibes (Special 12″ Disco Mix)
DR13      -0.50 dB   -15.02 dB      8:16 28-Dance (Special 12″ Disco Mix)
DR10      -0.50 dB   -12.07 dB      6:10 25-Boogie City (Rock And Boogie Down) (Special 12″ Disco Mix)
DR14      -0.50 dB   -16.31 dB      7:53 04-Boogie With Me (12″ Disco Mix)
DR11      -1.30 dB   -14.51 dB      9:47 30-Come On And Do It (Special Disco Remix)
DR13      -0.50 dB   -15.41 dB      6:03 07-I'm The One
DR10      -0.50 dB   -13.17 dB      5:39 20-Till You Surrender (Special Remix)
DR13      -0.50 dB   -14.95 dB      6:41 27-Savage Lover (Special 12″ Disco Mix / Long Version)
DR12      -0.66 dB   -14.41 dB      4:33 19-Mondo Man (12″ Version)
DR11      -0.50 dB   -12.86 dB      5:04 14-Always There (Special 12″ Disco Mix)
DR13      -0.52 dB   -14.50 dB      7:04 17-Space Bass (Special 12″ Disco Mix)
DR12      -0.50 dB   -14.19 dB      5:33 15-I Don't Know What's On Your Mind (Special 12″ Disco Mix)
DR11      -0.50 dB   -13.25 dB      9:31 02-Over And Over (Special 12″ Disco Mix)
DR11      -0.30 dB   -12.63 dB      8:19 18-Dance (Disco Heat) (Special 12″ Disco Mix)
DR13      -0.50 dB   -14.86 dB      5:56 31-I Need Somebody To Love Tonight (Disco Mix)
DR13      -0.50 dB   -15.51 dB      4:06 03-Don't Know What To Say
DR11      -0.50 dB   -13.10 dB      6:17 21-Rock Creek Park (Remix)
DR12      -0.50 dB   -14.13 dB      4:37 06-Fascinating Woman
DR13      -0.50 dB   -15.09 dB      6:51 01-Turn The Music Up! (12″ Disco)
DR11      -0.50 dB   -13.19 dB      6:09 22-Love Hangover (12″ Disco)
DR12      -0.50 dB   -14.42 dB      7:14 26-I Got The Feeling (Patrick Cowley MegaMix)
--------------------------------------------------------------------------------
Number of tracks:  31
Official DR value: DR12
Samplerate:        192000 Hz
Channels:          2
Bits per sample:   24
Bitrate:           5832 kbps
Codec:             FLAC
================================================================================
Источник: qobuz.com
 
Не забывайте говорить Спасибо. Не уходите с раздачи!   
Торрент: Зарегистрирован [25 авг 2018, 08:40]
Статус:
Проверен
 
.torrent скачан: 0 раз
Хэш: b6e6bdbd2792520844a2620566f29584d0cabd7d
Размер: 7.68 ГБ (8 242 074 184 байт)
   Стать Автором раздачи
   
Цитата

Вернуться в Поп-музыка (Hi-Res stereo)

Кто сейчас на конференции

Сейчас эту тему просматривают: нет зарегистрированных пользователей и гости: 1