[TR24][OF] Vic Lewis And His Orchestra - Donovan My Way - 1968/2018 (Easy Listening, Instrumental)

 Статистика раздачи 
Размер: 1.15 ГБ   |  Зарегистрирован: 25 сен 2018, 07:03   |   .torrent скачан: 0 раз
Сидеров: 0  [ 0 байт/сек ]     Личеров: 0  [ 0 байт/сек ]  
  
Аватара пользователя
Главный редактор
Главный редактор
 
Раздал: 90.01 ТБ
Скачал: 3.78 ТБ
Ратио: 24.248
Сообщения: 274856
Стаж: 9 лет 1 месяц 20 дней
Откуда: Санкт-Петербург

Vic Lewis And His Orchestra - Donovan My Way
Формат записи/Источник записи: [TR24][OF]
Наличие водяных знаков: Нет
Год издания/переиздания диска: 1968/2018
Жанр: Easy Listening, Instrumental
Издатель (лейбл): Epic/Legacy
Продолжительность: 32:42
Наличие сканов в содержимом раздачи: Только обложка альбома
Треклист:
01. Sunshine Superman (2:22)
02. There Is A Mountain (3:04)
03. Poor Cow (2:41)
04. Lalena (2:29)
05. Lord Of The Reedy River (3:29)
06. Mellow Yellow (2:26)
07. Hurdy Gurdy Man (2:45)
08. Catch The Wind (2:22)
09. Young Girl Blues (3:33)
10. A Sunny Day (2:44)
11. Three King Fishers (2:32)
12. Jennifer Juniper (2:16) 
 
Vic Lewis And His Orchestra - Donovan My Way this is an excellent instrumental album of Donovan songs by one time NEMS Manager Vic Lewis. Arranged and produced by longtime Donovan arranger John Cameron it features some of his regular musicians: Tony Carr (percussion) and Harold McNair (flute) not to mention Alan Parker on guitar (is this the same guy who actually played on Hurdy Gurdy Man). It has a rather lounge like style.

Контейнер: FLAC (*.flac)
Тип рипа: tracks
Разрядность: 24/192
Формат: PCM
Количество каналов: 2.0
Код: Выделить всё
foobar2000 1.3.9 / Dynamic Range Meter 1.1.1
log date: 2018-09-25 09:26:25
--------------------------------------------------------------------------------
Analyzed: Vic Lewis And His Orchestra / Donovan My Way
--------------------------------------------------------------------------------
DR         Peak         RMS     Duration Track
--------------------------------------------------------------------------------
DR10      -4.57 dB   -18.87 dB      2:22 01-Sunshine Superman
DR11      -5.11 dB   -20.14 dB      3:04 02-There Is A Mountain
DR10      -4.06 dB   -18.25 dB      2:41 03-Poor Cow
DR11      -3.60 dB   -17.28 dB      2:29 04-Lalena
DR11      -7.93 dB   -24.74 dB      3:29 05-Lord Of The Reedy River
DR10      -1.73 dB   -16.63 dB      2:26 06-Mellow Yellow
DR12      -4.76 dB   -20.03 dB      2:45 07-Hurdy Gurdy Man
DR10      -3.68 dB   -17.62 dB      2:22 08-Catch The Wind
DR11      -3.13 dB   -17.77 dB      3:33 09-Young Girl Blues
DR12      -4.53 dB   -21.48 dB      2:44 10-A Sunny Day
DR11      -5.36 dB   -20.43 dB      2:32 11-Three King Fishers
DR10      -3.66 dB   -16.65 dB      2:16 12-Jennifer Juniper
--------------------------------------------------------------------------------
Number of tracks:  12
Official DR value: DR11
Samplerate:        192000 Hz
Channels:          2
Bits per sample:   24
Bitrate:           5249 kbps
Codec:             FLAC
================================================================================
Источник: qobuz.com
 
Не забывайте говорить Спасибо. Не уходите с раздачи!   
Торрент: Зарегистрирован [25 сен 2018, 07:03]
Статус:
Проверен
 
.torrent скачан: 0 раз
Хэш: 1d61fb6095cd7bfb7034ef2798f13df664c18c3a
Размер: 1.15 ГБ (1 235 102 089 байт)
   Стать Автором раздачи
   
Цитата

Вернуться в Поп-музыка (Hi-Res stereo)

Кто сейчас на конференции

Сейчас эту тему просматривают: нет зарегистрированных пользователей и гости: 1