[TR24][OF] Dua Lipa - Dua Lipa (Deluxe edition) - 2017 (Pop)

 Статистика раздачи 
Размер: 704.69 МБ   |  Зарегистрирован: 04 июн 2017, 21:13   |   .torrent скачан: 0 раз
Сидеров: 0  [ 0 байт/сек ]     Личеров: 0  [ 0 байт/сек ]  
  
Аватара пользователя
Главный редактор
Главный редактор
 
Раздал: 90.01 ТБ
Скачал: 3.78 ТБ
Ратио: 24.248
Сообщения: 274106
Стаж: 9 лет 1 месяц 17 дней
Откуда: Санкт-Петербург
СообщениеДобавлено: 04 июн 2017, 21:13


Dua Lipa / Dua Lipa
Формат записи/Источник записи: [TR24][OF]
Наличие водяных знаков: Нет
Издание: Deluxe edition
Год издания/переиздания диска: 2017
Жанр: Pop
Издатель (лейбл): Warner Bros
Продолжительность: 60:10
Наличие сканов в содержимом раздачи: Нет
Треклист:
1. Genesis
2. Lost In Your Light
3. Hotter Than Hell
4. Be The One
5. IDGAF
6. Blow Your Mind (MWAH)
7. Garden
8. No Goodbyes
9. Thinking 'Bout You
10. New Rules
11. Begging
12. Homesick
13. Dreams
14. Room For 2
15. New Love
16. Bad Together
17. Last Dance
Контейнер: FLAC (*.flac)
Тип рипа: tracks+.cue
Разрядность: 24/44,1
Формат: PCM
Количество каналов: 2.0
Код: Выделить всё
foobar2000 1.3.7 / Замер динамического диапазона (DR) 1.1.1
Дата отчёта:  2017-06-05 00:08:58
--------------------------------------------------------------------------------
Анализ:   Dua Lipa / Dua Lipa (Deluxe)
--------------------------------------------------------------------------------
DR         Пики         RMS           Продолжительность трека
--------------------------------------------------------------------------------
DR5       -0.60 дБ    -7.80 дБ      3:26 01-Genesis
DR4       -1.21 дБ    -6.36 дБ      3:24 02-Lost In Your Light (feat. Miguel)
DR5       -0.63 дБ    -7.31 дБ      3:10 03-Hotter Than Hell
DR5       -0.60 дБ    -7.56 дБ      3:25 04-Be The One
DR5       -0.61 дБ    -7.65 дБ      3:38 05-IDGAF
DR5       -0.01 дБ    -5.47 дБ      2:59 06-Blow Your Mind (Mwah)
DR5       -0.61 дБ    -7.38 дБ      3:48 07-Garden
DR4       -0.50 дБ    -6.34 дБ      3:36 08-No Goodbyes
DR5       -1.09 дБ    -8.48 дБ      2:51 09-Thinking 'Bout You
DR4       -0.90 дБ    -6.89 дБ      3:32 10-New Rules
DR4       -0.60 дБ    -6.99 дБ      3:14 11-Begging
DR7       -0.61 дБ   -10.76 дБ      3:50 12-Homesick
DR5       -0.61 дБ    -7.49 дБ      3:40 13-Dreams
DR5       -0.10 дБ    -6.96 дБ      3:29 14-Room For 2
DR6       -0.81 дБ    -9.51 дБ      4:02 15-New Love
DR4       -0.69 дБ    -7.65 дБ      3:59 16-Bad Together
DR5       -0.60 дБ    -8.40 дБ      3:52 17-Last Dance
--------------------------------------------------------------------------------
Количество треков: 17
Реальные значения DR: DR5
Частота:   44100 Гц
Каналов:   2
Разрядность:   24
Битрейт:   1573 кбит/с
Кодек:   FLAC
================================================================================
Источник (релизер): qobuz
Не забывайте говорить Спасибо. Не уходите с раздачи!   
Торрент: Зарегистрирован [04 июн 2017, 21:13]
Статус:
Проверен
 
.torrent скачан: 0 раз
Хэш: 2cd224664f42f62b45d7026b7a6ac3dceaf3eb17
Размер: 704.69 МБ (738 924 125 байт)
   Стать Автором раздачи
   
Цитата

Вернуться в Поп-музыка (Hi-Res stereo)

Кто сейчас на конференции

Сейчас эту тему просматривают: нет зарегистрированных пользователей и гости: 1