[TR24][OF] Lionel Richie - Lionel Richie - 1982/2015 (R&B, Soul, Funk)

 Статистика раздачи 
Размер: 1.91 ГБ   |  Зарегистрирован: 15 май 2015, 11:28   |   .torrent скачан: 0 раз
Сидеров: 0  [ 0 байт/сек ]     Личеров: 0  [ 0 байт/сек ]  
  
Аватара пользователя
Главный редактор
Главный редактор
 
Раздал: 90.01 ТБ
Скачал: 3.78 ТБ
Ратио: 24.248
Сообщения: 273876
Стаж: 9 лет 1 месяц 14 дней
Откуда: Санкт-Петербург

Lionel Richie
Lionel Richie

Год издания/переиздания диска: 1982/2015
Жанр: R&B, Soul, Funk
Издатель (лейбл): Universal | Motown
Продолжительность: 00:38:08
Наличие сканов: Sleeve


01. Serves You Right (5:09)
02. Wandering Stranger (5:37)
03. Tell Me (5:28)
04. My Love (4:07)
05. Round And Round (4:55)
06. Truly (3:23)
07. You Are (5:01)
08. You Mean More To Me (3:04)
09. Just Put Some Love In Your Heart (1:24)


Контейнер: FLAC (*.flac)
Тип рипа: tracks
Разрядность: 24bit / 192kHz
Количество каналов: 2.0

Lionel Richie is forever enshrined in the popular imagination for his ballads, but his first solo album is more wide-ranging than that. Besides the three hit singles ('Truly' and 'My Love' are classic Richie ballads, while the sleek and slightly more uptempo 'You Are' is possibly Richie's finest solo single), „Lionel Richie“ focuses primarily on glossy early '80s dance pop/R&B. Richie and Commodores producer James Anthony Carmichael move beyond that band's beginnings as a loose, horn-led funk group, using synths and bell-like electric pianos over metronomic (but not stiff or artificial) rhythm tracks. Although „Lionel Richie“ came out several months prior to Thriller, that album is a very close comparison sonically; slick pop-R&B grooves like 'Serves You Right' and 'Tell Me' have a similar mix of Top 40 smarts and soulful heart.
Lionel Richie, vocals, piano
Joe Walsh, guitar
Richie Zito, guitar
Timothy May, acoustic guitar
Fred Tackett, acoustic guitar
David Cochrane, guitars, saxophone, piano, bass synthesizer, bass, background vocals
Darrell Jones, guitar
Paul Jackson, Jr., guitar
Le Vant, G., harp
Gary Herbig, woodwinds, saxophone
Donald Ashworth, woodwinds
E. Cipriano, woodwinds
L. Williams, woodwinds
E. Watts, W. Green, saxophone
B. Findlay, trumpet
G.A. Grant, trumpet
W. Lucning, trumpet
Jerry Hey, trumpet
W. Johnson, trumpet
Warren Luening, trumpet
Dave Rockin Duke, French horn
James Atkinson, French horn
Richard Perissi, French horn
Henry Sigismonti, French horn
A. Maebe, French horn
Brian O'Connor, French horn
Lew McCreary, trombone
William Frank 'Bill' Reichenbach Jr., trombone
Nathan East, bass
Michael Lang, piano, Fender Rhodes piano
James Anthony Carmichael, celesta
Clarence McDonald, Fender Rhodes piano
William Payne, Fender Rhodes piano
Michael Boddicker, synthesizer, vocoder
Arni Egilsson, double bass
Buell Neidlinger, double bass
Nathan Watts, bass
Joe Chemay, bass
John 'J. R.' Robinson, drums
Paul Liem, drums
Leon 'Ndugu' Chancler, drums
Richard Schlosser, percussion
Leonard Castro, percussion
Paulinho Da Costa, percussion
Jimmy Connors, background vocals
Deborah Thomas, background vocals
Howard Kenny, background vocals
Kin Vassy, background vocals
Richard Marx, background vocals
Terry Williams, background vocals
Recorded from 1981–82 at A&M Recording Studios, Hollywood, CA.
Engineered by Fred Law, Stephen Johnson, Michael 'Mike Dee' Johnson, Jim Cassell, Calvin Harris
Produced by James Anthony Carmichael and Lionel Richie
Digitally remastered
Код: Выделить всё
foobar2000 1.2.2 / Dynamic Range Meter 1.1.1
log date: 2015-05-14 23:15:23
--------------------------------------------------------------------------------
Analyzed: Lionel Richie / Lionel Richie
--------------------------------------------------------------------------------
DR         Peak         RMS     Duration Track
--------------------------------------------------------------------------------
DR10       0.00 dB   -12.47 dB      5:09 ?-Serves You Right
DR11       0.00 dB   -14.43 dB      5:37 ?-Wandering Stranger
DR11       0.00 dB   -12.38 dB      5:28 ?-Tell Me
DR10       0.00 dB   -13.96 dB      4:07 ?-My Love
DR10       0.00 dB   -12.36 dB      4:55 ?-Round And Round
DR10       0.00 dB   -14.50 dB      3:23 ?-Truly
DR10       0.00 dB   -12.57 dB      5:01 ?-You Are
DR11       0.00 dB   -16.46 dB      3:04 ?-You Mean More To Me
DR11       0.00 dB   -15.96 dB      1:24 ?-Just Put Some Love In Your Heart
--------------------------------------------------------------------------------
Number of tracks:  9
Official DR value: DR11
Samplerate:        192000 Hz
Channels:          2
Bits per sample:   24
Bitrate:           6381 kbps
Codec:             FLAC
================================================================================
При скачивании, если необходимо, переименуйте папку, в которой будет находиться альбом
Большая просьба к скачавшим поддерживать раздачу! Помогайте другим, ведь вам тоже может понадобиться помощь!
Не забываем говорить "Спасибо"!
Комментарии приветствуются!
Lionel Richie Hi-Res[/spoiler]
Не забывайте говорить Спасибо. Не уходите с раздачи!   
Торрент: Зарегистрирован [15 май 2015, 11:28]
Статус:
Проверен
 
.torrent скачан: 0 раз
Хэш: 6714c8706256492aa54ef5fb6ca3aa8e032d87d0
Размер: 1.91 ГБ (2 049 550 188 байт)
   Стать Автором раздачи
   
Цитата

Вернуться в Поп-музыка (Hi-Res stereo)

Кто сейчас на конференции

Сейчас эту тему просматривают: нет зарегистрированных пользователей и гости: 1