[TR24][OF] Jacques Brel - Marieke - 1961/2013/2016 (French Pop, Chanson)

 Статистика раздачи 
Размер: 1.01 ГБ   |  Зарегистрирован: 28 янв 2018, 07:42   |   .torrent скачан: 0 раз
Сидеров: 0  [ 0 байт/сек ]     Личеров: 0  [ 0 байт/сек ]  
  
Аватара пользователя
Главный редактор
Главный редактор
 
Раздал: 90.01 ТБ
Скачал: 3.78 ТБ
Ратио: 24.248
Сообщения: 274043
Стаж: 9 лет 1 месяц 16 дней
Откуда: Санкт-Петербург

Jacques Brel - Marieke
Формат записи/Источник записи: [TR24][OF]
Наличие водяных знаков: Нет
Год издания/переиздания диска: 1961/2013/2016
Жанр: French Pop, Chanson
Издатель (лейбл): Barclay
Продолжительность: 45:59
Наличие сканов в содержимом раздачи: Только обложка альбома
Треклист:
01. Marieke (2:43)
02. Le moribond (3:06)
03. Vivre debout (3:02)
04. On n'oublie rien (3:06)
05. Clara (3:01)
06. Le prochain amour (3:31)
07. L'ivrogne (4:02)
08. Les prénoms de Paris (2:38)
09. Les singes (3:03)
10. Marieke (2:52)
11. Laat Me Niet Alleen (4:29)
12. De Apen (3:02)
13. Men Vergeet Niets (3:03)
14. Le prochain amour (4:21) 

Контейнер: FLAC (*.flac)
Тип рипа: tracks
Разрядность: 24/96
Формат: PCM
Количество каналов: 2.0
Код: Выделить всё
foobar2000 1.3.9 / Dynamic Range Meter 1.1.1
log date: 2018-01-28 10:31:41
--------------------------------------------------------------------------------
Analyzed: Jacques Brel / Marieke
--------------------------------------------------------------------------------
DR         Peak         RMS     Duration Track
--------------------------------------------------------------------------------
DR8        0.00 dB   -10.39 dB      2:43 01-Marieke
DR9        0.00 dB   -10.15 dB      3:06 02-Le moribond
DR9        0.00 dB   -11.80 dB      3:02 03-Vivre debout
DR8        0.00 dB    -9.27 dB      3:06 04-On n'oublie rien
DR8        0.00 dB    -9.36 dB      3:01 05-Clara
DR8        0.00 dB    -9.66 dB      3:31 06-Le prochain amour
DR8        0.00 dB    -9.90 dB      4:02 07-L'ivrogne
DR9        0.00 dB   -10.03 dB      2:38 08-Les prénoms de Paris
DR8        0.00 dB   -10.02 dB      3:03 09-Les singes
DR7       -1.79 dB   -10.61 dB      2:52 10-Marieke
DR9       -2.39 dB   -13.98 dB      4:29 11-Laat Me Niet Alleen
DR9       -1.45 dB   -12.22 dB      3:02 12-De Apen
DR9       -1.77 dB   -11.74 dB      3:03 13-Men Vergeet Niets
DR9        0.00 dB   -10.93 dB      4:21 14-Le prochain amour
--------------------------------------------------------------------------------
Number of tracks:  14
Official DR value: DR8
Samplerate:        96000 Hz
Channels:          2
Bits per sample:   24
Bitrate:           3168 kbps
Codec:             FLAC
================================================================================
Источник: hdtracks.com[/spoiler]
Не забывайте говорить Спасибо. Не уходите с раздачи!   
Торрент: Зарегистрирован [28 янв 2018, 07:42]
Статус:
Проверен
 
.torrent скачан: 0 раз
Хэш: f4a5ea3d7165174d04152dfa18c4bbe39d713fd8
Размер: 1.01 ГБ (1 081 609 761 байт)
   Стать Автором раздачи
   
Цитата

Вернуться в Поп-музыка (Hi-Res stereo)

Кто сейчас на конференции

Сейчас эту тему просматривают: нет зарегистрированных пользователей и гости: 1