[TR24][OF] Jacques Brel - J'Arrive - 1968/2013/2016 (French Pop, Chanson)

 Статистика раздачи 
Размер: 961.67 МБ   |  Зарегистрирован: 28 янв 2018, 14:50   |   .torrent скачан: 0 раз
Сидеров: 0  [ 0 байт/сек ]     Личеров: 0  [ 0 байт/сек ]  
  
Аватара пользователя
Главный редактор
Главный редактор
 
Раздал: 90.01 ТБ
Скачал: 3.78 ТБ
Ратио: 24.248
Сообщения: 274898
Стаж: 9 лет 1 месяц 21 день
Откуда: Санкт-Петербург

Jacques Brel - J'Arrive
Формат записи/Источник записи: [TR24][OF]
Наличие водяных знаков: Нет
Год издания/переиздания диска: 1968/2013/2016
Жанр: French Pop, Chanson
Издатель (лейбл): Barclay
Продолжительность: 41:29
Наличие сканов в содержимом раздачи: Только обложка альбома
Треклист:
01. J'arrive (4:46)
02. Vesoul (3:09)
03. L'ostendaise (4:49)
04. Je suis un soir d'été (4:10)
05. Regarde bien petit (4:41)
06. Comment tuer l'amant de sa femme quand on a été élevé comme moi dans la tradition? (2:41)
07. L'éclusier (4:20)
08. Un enfant (3:46)
09. La bière (3:15)
10. La chanson de Van Horst (3:01)
11. L'enfance (2:52)
 
A jumbled up reissue of the 1968 original J'Arrive, which arrived at a time when Jacques Brel had pretty much receded into the background, having retired in 1967 as a full-time chansonier. But that's not to say that he wasn't writing spectacular songs – he was. After the smashing successes of the earlier "Ne Me Quitte Pas," "Les Bourgeois," and "Chanson de Jacky," however, these later, less orchestrated compositions have become lost within the canon. With a set split between the two quintessential Brel styles – peppy chanson and introspective ballad – there's a little something here for everyone. "Regarde Bien Petit" is stunning, sweeping and delightfully punctuated with Midsummer Night's Dream touches, as is "En Enfant," leaving the upbeat "Vesoul" and "Comment Tuer L'Amant de Sa Femme Quand On Ete Eleve Comme Moi Dans la Tradition" to balance nicely. Fans of Marc Almond's brilliant renditions of Brel's best, meanwhile, will recognize and delight in "J'Arrive" and "L'Eclusier." While bonus tracks have been tacked on to nearly all Brel reissues thus far, the real gems in this incarnation are two cuts from Brel's film work. The first, "L'Enfance," comes from the 1973 film Le Far-West. A French/Belgian production, the film follows Brel in the guise of a cowboy on a journey through modern America's West as he tries and succeeds in building a utopian Old West town. The second bonus track comes from the cast LP of 1968's L'Homme de la Mancha, with Brel's powerful re-tooling of Don Quixote, staged at Paris' Theatre des Champs-Elysees. "La Quete," known to English-speakers as "The Impossible Dream," is by far one of Brel's finest and most stirringly passionate performances ever. Sung solo, the emotion that Brel imparts through this performance would be hard pressed to be duplicated by any one, in any language.

Контейнер: FLAC (*.flac)
Тип рипа: tracks
Разрядность: 24/96
Формат: PCM
Количество каналов: 2.0
Код: Выделить всё
foobar2000 1.3.9 / Dynamic Range Meter 1.1.1
log date: 2018-01-28 17:36:45
--------------------------------------------------------------------------------
Analyzed: Jacques Brel / J'Arrive
--------------------------------------------------------------------------------
DR         Peak         RMS     Duration Track
--------------------------------------------------------------------------------
DR7        0.00 dB    -9.86 dB      4:46 01-J'arrive
DR6        0.00 dB    -8.24 dB      3:09 02-Vesoul
DR7        0.00 dB    -8.34 dB      4:49 03-L'ostendaise
DR7        0.00 dB    -8.39 dB      4:10 04-Je suis un soir d'été
DR6        0.00 dB    -9.86 dB      4:41 05-Regarde bien petit
DR7        0.00 dB    -8.56 dB      2:41 06-Comment tuer l'amant de sa femme quand on a été élevé comme moi dans la tradition?
DR9        0.00 dB   -11.38 dB      4:20 07-L'éclusier
DR7        0.00 dB    -9.49 dB      3:46 08-Un enfant
DR8        0.00 dB    -9.63 dB      3:15 09-La bière
DR7        0.00 dB    -9.10 dB      3:01 10-La chanson de Van Horst
DR8        0.00 dB   -11.56 dB      2:52 11-L'enfance
--------------------------------------------------------------------------------
Number of tracks:  11
Official DR value: DR7
Samplerate:        96000 Hz
Channels:          2
Bits per sample:   24
Bitrate:           3074 kbps
Codec:             FLAC
================================================================================
Источник: hdtracks.com[/spoiler]
Не забывайте говорить Спасибо. Не уходите с раздачи!   
Торрент: Зарегистрирован [28 янв 2018, 14:50]
Статус:
Проверен
 
.torrent скачан: 0 раз
Хэш: 76670b66014fe9dd7feac274b1d65591c6f97d4b
Размер: 961.67 МБ (1 008 380 852 байт)
   Стать Автором раздачи
   
Цитата

Вернуться в Поп-музыка (Hi-Res stereo)

Кто сейчас на конференции

Сейчас эту тему просматривают: нет зарегистрированных пользователей и гости: 1