[TR24][OF] Sia - Everyday Is Christmas - 2017 (Pop)

 Статистика раздачи 
Размер: 426.73 МБ   |  Зарегистрирован: 23 ноя 2017, 09:22   |   .torrent скачан: 0 раз
Сидеров: 0  [ 0 байт/сек ]     Личеров: 0  [ 0 байт/сек ]  
  
Аватара пользователя
Главный редактор
Главный редактор
 
Раздал: 90.01 ТБ
Скачал: 3.78 ТБ
Ратио: 24.248
Сообщения: 273485
Стаж: 9 лет 1 месяц 10 дней
Откуда: Санкт-Петербург
СообщениеДобавлено: 23 ноя 2017, 09:22


Sia / Everyday Is Christmas
Формат записи/Источник записи: [TR24][OF]
Наличие водяных знаков: Нет
Год издания/переиздания диска: 2017
Жанр: Pop
Издатель (лейбл): Atlantic
Продолжительность: 35:16
Наличие сканов в содержимом раздачи: Только обложка альбома
Треклист:
01. Santa's Coming For Us (3:27)
02. Candy Cane Lane (3:32)
03. Snowman (2:45)
04. Snowflake (4:02)
05. Ho Ho Ho (3:25)
06. Puppies Are Forever (3:43)
07. Sunshine (3:25)
08. Underneath the Mistletoe (3:50)
09. Everyday Is Christmas (3:23)
10. Underneath the Christmas Lights (3:36)
Контейнер: FLAC (*.flac)
Тип рипа: tracks
Разрядность: 24/44,1
Формат: WAV (flac.ape.wv)
Количество каналов: 2.0
Код: Выделить всё
foobar2000 1.3.7 / Dynamic Range Meter 1.1.1
log date: 2017-11-17 09:32:45
--------------------------------------------------------------------------------
Analyzed: Sia / Everyday Is Christmas
--------------------------------------------------------------------------------
DR         Peak         RMS     Duration Track
--------------------------------------------------------------------------------
DR6        0.00 dB    -7.36 dB      3:27 01-Santa's Coming For Us
DR5       -0.01 dB    -6.28 dB      3:32 02-Candy Cane Lane
DR6        0.00 dB    -7.47 dB      2:46 03-Snowman
DR7       -0.06 dB    -9.85 dB      4:03 04-Snowflake
DR4       -0.47 dB    -6.54 dB      3:26 05-Ho Ho Ho
DR5       -0.01 dB    -6.03 dB      3:43 06-Puppies Are Forever
DR5       -0.12 dB    -6.51 dB      3:26 07-Sunshine
DR5        0.00 dB    -6.73 dB      3:50 08-Underneath the Mistletoe
DR5       -0.51 dB    -7.48 dB      3:24 09-Everyday Is Christmas
DR8       -0.47 dB   -10.70 dB      3:37 10-Underneath the Christmas Lights
--------------------------------------------------------------------------------
Number of tracks:  10
Official DR value: DR6
Samplerate:        44100 Hz
Channels:          2
Bits per sample:   24
Bitrate:           1513 kbps
Codec:             FLAC
================================================================================
Источник (релизер): qobuz
Не забывайте говорить Спасибо. Не уходите с раздачи!   
Торрент: Зарегистрирован [23 ноя 2017, 09:22]
Статус:
Проверен
 
.torrent скачан: 0 раз
Хэш: 0fcb89e37f7758aa702b25d7551179c9d12d1857
Размер: 426.73 МБ (447 458 285 байт)
   Стать Автором раздачи
   
Цитата
  • Похожие торренты
    Ответы
    Просмотры
    Последнее сообщение

Вернуться в Поп-музыка (Hi-Res stereo)

Кто сейчас на конференции

Сейчас эту тему просматривают: нет зарегистрированных пользователей и гости: 1