[TR24][OF] Тина Кароль - Интонации - 2017 (POP)

 Статистика раздачи 
Размер: 527.63 МБ   |  Зарегистрирован: 21 июл 2019, 11:13   |   .torrent скачан: 0 раз
Сидеров: 0  [ 0 байт/сек ]     Личеров: 0  [ 0 байт/сек ]  
  
Аватара пользователя
Главный редактор
Главный редактор
 
Раздал: 90.01 ТБ
Скачал: 3.78 ТБ
Ратио: 24.248
Сообщения: 274856
Стаж: 9 лет 1 месяц 20 дней
Откуда: Санкт-Петербург

Тина Кароль / Интонации
Формат записи/Источник записи: [TR24][OF]
Наличие водяных знаков: Нет
Год издания/переиздания диска: 2017
Жанр: POP
Продолжительность: 00:45:04
Треклист:
01. Дикая вода
02. Мужчина моей мечты
03. Тобi здається
04. Космiчнi почуття
05. Обiцяй
06. Твої грiхи
07. Всё во мне
08. Несколько причин
09. Земля
10. Внезапно
11. Перечекати
12. Шаг, шаг
13. Ой, ходить сон
Контейнер: FLAC (*.flac)
Тип рипа: tracks
Разрядность: 24/44,1
Формат: WAV (flac.ape.wv)
Количество каналов: 2.0
Код: Выделить всё
foobar2000 1.4.5 / Замер динамического диапазона (DR) 1.1.1
Дата отчёта:  2019-07-21 22:27:45
--------------------------------------------------------------------------------
Анализ:   Тина Кароль / Интонации (1-11)
          Тіна Кароль / Интонации (12)
--------------------------------------------------------------------------------
DR         Пики         RMS           Продолжительность трека
--------------------------------------------------------------------------------
DR6       -0.20 дБ    -9.09 дБ      3:16 02-Мужчина моей мечты
DR7       -0.20 дБ    -8.37 дБ      3:24 03-Тобi здається
DR10      -0.20 дБ   -13.76 дБ      2:49 04-Космiчнi почуття
DR8       -0.20 дБ    -9.02 дБ      4:11 05-Обiцяй
DR8       -0.20 дБ   -10.72 дБ      3:42 06-Твої грiхи
DR6       -0.20 дБ    -9.25 дБ      4:42 07-Всё во мне
DR5       -0.20 дБ    -6.33 дБ      3:21 08-Несколько причин
DR8       -0.20 дБ   -10.68 дБ      4:01 09-Земля
DR7       -0.20 дБ    -8.81 дБ      3:49 10-Внезапно
DR7       -0.20 дБ    -9.70 дБ      3:17 11-Перечекати
DR7       -0.20 дБ    -9.71 дБ      2:23 12-Шаг, шаг
DR7       -0.20 дБ    -9.33 дБ      2:50 01-Дикая вода
--------------------------------------------------------------------------------
Количество треков: 12
Реальные значения DR: DR7
Частота:   44100 Гц
Каналов:   2
Разрядность:   24
Битрейт:   1697 кбит/с
Кодек:   FLAC
================================================================================
--------------------------------------------------------------------------------
Статистика для:  13-Ой, ходить сон
Количество сэмплов: 9548308
Продолжительность: 3:19
--------------------------------------------------------------------------------
           Левый             Правый
Пики:                0.00 дБ     ---      0.00 дБ
Средний RMS:              -7.41 дБ     ---     -7.73 дБ
DR канала:               4.67 дБ     ---      5.29 дБ
--------------------------------------------------------------------------------
Реальные значения DR: DR5
Частота:   48000 Гц
Каналов:   2
Разрядность:   24
Битрейт:   1746 кбит/с
Кодек:   FLAC
================================================================================
Источник (релизер): https://www.qobuz.com/
Не забывайте говорить Спасибо. Не уходите с раздачи!   
Торрент: Зарегистрирован [21 июл 2019, 11:13]
Статус:
Проверен
 
.torrent скачан: 0 раз
Хэш: e484e123e00de09fcba5a36aae8b9c89687617f8
Размер: 527.63 МБ (553 262 828 байт)
   Стать Автором раздачи
   
Цитата
  • Похожие торренты
    Ответы
    Просмотры
    Последнее сообщение

Вернуться в Поп-музыка (Hi-Res stereo)

Кто сейчас на конференции

Сейчас эту тему просматривают: нет зарегистрированных пользователей и гости: 1