[TR24][OF] The Palm Beach Band Boys - Winchester Cathedral - 1966/2016 (Pop, Easy Listening, Oldies)

 Статистика раздачи 
Размер: 827.44 МБ   |  Зарегистрирован: 30 май 2018, 20:47   |   .torrent скачан: 0 раз
Сидеров: 0  [ 0 байт/сек ]     Личеров: 0  [ 0 байт/сек ]  
  
Аватара пользователя
Главный редактор
Главный редактор
 
Раздал: 90.01 ТБ
Скачал: 3.78 ТБ
Ратио: 24.248
Сообщения: 274788
Стаж: 9 лет 1 месяц 19 дней
Откуда: Санкт-Петербург

The Palm Beach Band Boys - Winchester Cathedral
Формат записи/Источник записи: [TR24][OF]
Наличие водяных знаков: Нет
Год издания/переиздания диска: 1966/2016
Жанр: Pop, Easy Listening, Oldies
Издатель (лейбл): RCA Victor/Legacy
Продолжительность: 21:21
Наличие сканов в содержимом раздачи: Только обложка альбома
Треклист:
01. Winchester Cathedral (2:25)
02. A Little Bit Independent (1:51)
03. Boo-Hoo (1:56)
04. Let A Smile Be Your Umbrella (2:14)
05. I'm Gonna Sit Right Down And Write Myself A Letter (1:49)
06. Bend It (2:21)
07. It Looks Like Rain In Cherry Blossom Lane (2:01)
08. I Don't Want To Set The World On Fire (2:14)
09. Ida, Sweet As Apple Cider (2:20)
10. Gypsy Caravan (2:09)
 
The Palm Beach Band Boys was studio recording group ostensibly assembled by RCA Victor to capitalize on the success of The New Vaudeville Band's hit single, "Winchester Cathedral". They performed in a style for which the New Vaudeville Band's promoters coined the term, newstalgia, a kind of faux 1920s/1930s sound, featuring nasal vocals, banjo, brass, electric guitar, rock drums, and bassoon. According to a December 1966 TIME article, the vocalist is actually "an RCA executive who croons while holding his nose". Their first LP, "Winchester Cathedral", recorded in RCA Victor's Studios A and B in New York City was released in 1966. It featured arrangements by Billy Mure and was produced by Danny Davis.

Контейнер: FLAC (*.flac)
Тип рипа: tracks
Разрядность: 24/192
Формат: PCM
Количество каналов: 2.0
Код: Выделить всё
foobar2000 1.3.9 / Dynamic Range Meter 1.1.1
log date: 2018-05-30 23:33:10
--------------------------------------------------------------------------------
Analyzed: The Palm Beach Band Boys / Winchester Cathedral
--------------------------------------------------------------------------------
DR         Peak         RMS     Duration Track
--------------------------------------------------------------------------------
DR10      -0.02 dB   -11.97 dB      2:25 01-Winchester Cathedral
DR10      -0.32 dB   -11.45 dB      1:51 02-A Little Bit Independent
DR10      -0.02 dB   -12.28 dB      1:56 03-Boo-Hoo
DR9       -0.02 dB   -11.90 dB      2:14 04-Let A Smile Be Your Umbrella
DR9       -0.02 dB   -12.01 dB      1:49 05-I'm Gonna Sit Right Down And Write Myself A Letter
DR10      -0.02 dB   -12.29 dB      2:21 06-Bend It
DR9       -0.02 dB   -11.33 dB      2:01 07-It Looks Like Rain In Cherry Blossom Lane
DR9       -0.02 dB   -11.01 dB      2:14 08-I Don't Want To Set The World On Fire
DR9       -0.02 dB   -10.27 dB      2:20 09-Ida, Sweet As Apple Cider
DR9       -0.02 dB   -11.58 dB      2:09 10-Gypsy Caravan
--------------------------------------------------------------------------------
Number of tracks:  10
Official DR value: DR10
Samplerate:        192000 Hz
Channels:          2
Bits per sample:   24
Bitrate:           5461 kbps
Codec:             FLAC
================================================================================
Источник: hdtracks.com[/spoiler]
Не забывайте говорить Спасибо. Не уходите с раздачи!   
Торрент: Зарегистрирован [30 май 2018, 20:47]
Статус:
Проверен
 
.torrent скачан: 0 раз
Хэш: bc63f0e9f538554ed8700338b7cb436e037fd42e
Размер: 827.44 МБ (867 631 365 байт)
   Стать Автором раздачи
   
Цитата

Вернуться в Поп-музыка (Hi-Res stereo)

Кто сейчас на конференции

Сейчас эту тему просматривают: нет зарегистрированных пользователей и гости: 1