[TR24][OF] Jackie Chan - Sing Lung - 1986/2013 (Cantopop)

 Статистика раздачи 
Размер: 449.84 МБ   |  Зарегистрирован: 19 ноя 2016, 20:27   |   .torrent скачан: 0 раз
Сидеров: 0  [ 0 байт/сек ]     Личеров: 0  [ 0 байт/сек ]  
  
Аватара пользователя
Главный редактор
Главный редактор
 
Раздал: 90.01 ТБ
Скачал: 3.78 ТБ
Ратио: 24.248
Сообщения: 274898
Стаж: 9 лет 1 месяц 21 день
Откуда: Санкт-Петербург
СообщениеДобавлено: 19 ноя 2016, 20:27


Jackie Chan - Sing Lung
Формат записи/Источник записи: [TR24][OF]
Наличие водяных знаков: Нет
Год издания/переиздания диска: 1986/2013
Жанр: Cantopop
Издатель(лейбл): Rock Records
Продолжительность: 00:37:16
Наличие сканов в содержимом раздачи: Нет
Треклист:
01 - My Little Girl 3'57''
02 - I Stop The Heart Pain 4'07''
03 - Iron Man, Soft Feelings 4'11''
04 - Flight Of The Dragon (Armour Of God) 2'43'' - Cantonese Version
05 - Just For Tonight 3'37'' - Cantonese Version
06 - OK, I Love You 4'10''
07 - Thounsand Times Chained In Feelings 3'56''
08 - Waan Ngau 4'30''
09 - Life's Fulfillment 3'01''
10 - Hero Story (Police Story) 2'56''
Контейнер: FLAC (*.flac)
Тип рипа: tracks
Разрядность: 24/44,1
Формат: PCM
Количество каналов: 2.0
Код: Выделить всё
foobar2000 1.3.9 / Dynamic Range Meter 1.1.1
log date: 2016-11-19 17:24:49
--------------------------------------------------------------------------------
Analyzed: ? / ?
--------------------------------------------------------------------------------
DR         Peak         RMS     Duration Track
--------------------------------------------------------------------------------
DR10      -0.31 dB   -11.67 dB      3:57 ?-01. My Little Girl
DR12      -0.77 dB   -15.50 dB      4:12 ?-02. I Stop The Heart Pain
DR10      -0.30 dB   -12.08 dB      4:13 ?-03. Iron Man, Soft Feelings
DR11      -0.52 dB   -12.36 dB      2:42 ?-04. Flight Of The Dragon (Armour Of God) (Cantonese)
DR10      -0.50 dB   -11.62 dB      3:37 ?-05. Just For Tonight (Cantonese)
DR10      -0.30 dB   -11.86 dB      4:12 ?-06. OK, I Love You
DR12      -0.78 dB   -15.65 dB      3:56 ?-07. Thounsand Times Chained In Feelings
DR11      -0.53 dB   -13.64 dB      4:31 ?-08. Waan Ngau
DR10      -0.36 dB   -12.25 dB      3:00 ?-09. Life's Fulfillment
DR10      -0.49 dB   -12.05 dB      2:56 ?-10. Hero Story (Police Story)
--------------------------------------------------------------------------------
Number of tracks:  10
Official DR value: DR11
Samplerate:        44100 Hz
Channels:          2
Bits per sample:   24
Bitrate:           1710 kbps
Codec:             FLAC
================================================================================
Источник (релизер): hifitrack.com (found on net)
Не забывайте говорить Спасибо. Не уходите с раздачи!   
Торрент: Зарегистрирован [19 ноя 2016, 20:27]
Статус:
Проверен
 
.torrent скачан: 0 раз
Хэш: cd8f5003ee8d189df4f22ce43da189de4fc91b39
Размер: 449.84 МБ (471 693 909 байт)
   Стать Автором раздачи
   
Цитата
  • Похожие торренты
    Ответы
    Просмотры
    Последнее сообщение

Вернуться в Поп-музыка (Hi-Res stereo)

Кто сейчас на конференции

Сейчас эту тему просматривают: нет зарегистрированных пользователей и гости: 1