[TR24][OF] Juliette Armanet - Petite Amie (Deluxe Edition) - 2018 (French Pop)

 Статистика раздачи 
Размер: 589.22 МБ   |  Зарегистрирован: 23 июн 2018, 19:29   |   .torrent скачан: 0 раз
Сидеров: 0  [ 0 байт/сек ]     Личеров: 0  [ 0 байт/сек ]  
  
Аватара пользователя
Главный редактор
Главный редактор
 
Раздал: 90.01 ТБ
Скачал: 3.78 ТБ
Ратио: 24.248
Сообщения: 274043
Стаж: 9 лет 1 месяц 16 дней
Откуда: Санкт-Петербург

Juliette Armanet - Petite Amie
Формат записи/Источник записи: [TR24][OF]
Наличие водяных знаков: Нет
Издание: Deluxe Edition
Год издания/переиздания диска: 2018
Жанр: French Pop
Издатель (лейбл): Barclay
Продолжительность: 52:30
Наличие сканов в содержимом раздачи: Буклет PDF
Треклист:
01. L'Amour en Solitaire (2:55)
02. L'Indien (3:32)
03. Sous la Pluie (3:16)
04. À la Folie (4:00)
05. Cavalier Seule (2:47)
06. Alexandre (2:34)
07. Manque d'Amour (3:06)
08. À la Guerre comme à l'Amour (3:42)
09. Un Samedi Soir dans l'Histoire (3:24)
10. Star Triste (3:58)
11. La Carte Postale (2:57)
12. L'Accident (2:52)
13. Petite Amie (3:13)
14. La Nuit (3:22)
15. Loulou (3:54)
16. Adieu Tchin Tchin (2:59)
 
Avec son premier EP Cavalier seul, Juliette Armanet s’imposait comme la révélation inattendue du printemps 2016. Le ton était donné d’entrée de jeu,, entre chanson française vintage assumée (Véronique Sanson, William Sheller,Michel Berger, Yves Simon, Isabelle Adjani) et pop moderne, luxueuse et arrangée (Sébastien Tellier). La force de son premier album qui parait un an plus tard, Petite amie, est de continuer à s’amuser avec l’inconscient de l’auditeur et ses plaisirs coupables un brin kitsch (le saxo de La Carte postale et surtout le clip de Manque d’amour), tout en conservant une réelle exigence dans la plume comme dans les mélodies. Sur la pointe des pieds, Armanet entre dans un no man’s land que l’on croit connaître et qui demeure pourtant nouveau et frais au possible. Un no man’s land troublant où il est souvent question d’Amour avec un grand A (L'Amour en Solitaire, Manque d'Amour, A la Guerre comme à l'Amour), thème éternel qu’elle aborde, comme ses aînées, avec sérieux ou de biais, un sourire au bord des lèvres. Un écart assez grand pour combler à la fois le grand public comme les officines de la hype… Et puis derrière son piano, Juliette Armanet c’est aussi cette voix d’une clarté renversante, limpide et touchante. Aucun doute : a star is vraiment born !
© MZ/Qobuz

Контейнер: FLAC (*.flac)
Тип рипа: tracks
Разрядность: 24/44,1
Формат: PCM
Количество каналов: 2.0
Код: Выделить всё
foobar2000 1.3.9 / Dynamic Range Meter 1.1.1
log date: 2018-06-23 22:11:38
--------------------------------------------------------------------------------
Analyzed: Juliette Armanet / Petite Amie (Deluxe Edition)
--------------------------------------------------------------------------------
DR         Peak         RMS     Duration Track
--------------------------------------------------------------------------------
DR7        0.00 dB    -8.84 dB      2:55 01-L'Amour en Solitaire
DR8        0.00 dB    -9.91 dB      3:32 02-L'Indien
DR9        0.00 dB   -11.66 dB      3:16 03-Sous la Pluie
DR7        0.00 dB    -8.37 dB      4:00 04-À  la Folie
DR6        0.00 dB    -7.32 dB      2:47 05-Cavalier Seule
DR11       0.00 dB   -13.57 dB      2:34 06-Alexandre
DR8        0.00 dB   -10.13 dB      3:06 07-Manque d'Amour
DR8        0.00 dB    -9.79 dB      3:42 08-À  la Guerre comme à l'Amour
DR7        0.00 dB    -8.25 dB      3:24 09-Un Samedi Soir dans l'Histoire
DR7        0.00 dB    -9.26 dB      3:58 10-Star Triste
DR7        0.00 dB    -8.99 dB      2:57 11-La Carte Postale
DR10       0.00 dB   -13.10 dB      2:52 12-L'Accident
DR8        0.00 dB    -9.69 dB      3:13 13-Petite Amie
DR7        0.00 dB    -9.21 dB      3:22 14-La Nuit
DR6        0.00 dB    -7.26 dB      3:54 15-Loulou
DR10       0.00 dB   -12.73 dB      2:59 16-Adieu Tchin Tchin
--------------------------------------------------------------------------------
Number of tracks:  16
Official DR value: DR8
Samplerate:        44100 Hz
Channels:          2
Bits per sample:   24
Bitrate:           1291 kbps
Codec:             FLAC
================================================================================
Источник: qobuz.com

Juliette Armanet - Petite Amie (Edition Délice) - 2018 (French Pop)
Не забывайте говорить Спасибо. Не уходите с раздачи!   
Торрент: Зарегистрирован [23 июн 2018, 19:29]
Статус:
Проверен
 
.torrent скачан: 0 раз
Хэш: 652b4722c21e6cd4136a4a5b891976ffbf5a59bb
Размер: 589.22 МБ (617 837 955 байт)
   Стать Автором раздачи
   
Цитата

Вернуться в Поп-музыка (Hi-Res stereo)

Кто сейчас на конференции

Сейчас эту тему просматривают: нет зарегистрированных пользователей и гости: 1