[TR24][OF] Glenn Yarbrough - Come And Sit By My Side - 1957/2017 (Pop, Folk)

 Статистика раздачи 
Размер: 299.98 МБ   |  Зарегистрирован: 24 янв 2018, 20:03   |   .torrent скачан: 0 раз
Сидеров: 0  [ 0 байт/сек ]     Личеров: 0  [ 0 байт/сек ]  
  
Аватара пользователя
Главный редактор
Главный редактор
 
Раздал: 90.01 ТБ
Скачал: 3.78 ТБ
Ратио: 24.248
Сообщения: 274856
Стаж: 9 лет 1 месяц 20 дней
Откуда: Санкт-Петербург

Glenn Yarbrough - Come And Sit By My Side
Формат записи/Источник записи: [TR24][OF]
Наличие водяных знаков: Нет
Год издания/переиздания диска: 1957/2017
Жанр: Pop, Folk
Издатель (лейбл): Tradition Records
Продолжительность: 33:38
Наличие сканов в содержимом раздачи: Только обложка альбома
Источник: WRZmusic
Магазин: qobuz.com
Треклист:
01. Waltzing Matilda (2:56)
02. Red River Valley (2:27)
03. All Around My Hat (2:35)
04. My Mule Sal (1:50)
05. Bow Down Your Head And Cry (2:10)
06. Come Again (2:57)
07. A Capital Ship (2:57)
08. Dark As A Dungeon (2:33)
09. The Tailor And The Mouse (1:34)
10. Banks Of The Ohio (2:37)
11. John Hardy (2:23)
12. Suspiros del Chanchamayo (2:10)
13. Old Maid's Song (2:48)
14. Lonesome Valley (1:39) 

Контейнер: FLAC (*.flac)
Тип рипа: tracks
Разрядность: 24/44,1
Формат: PCM
Количество каналов: 2.0
Код: Выделить всё
foobar2000 1.3.9 / Dynamic Range Meter 1.1.1
log date: 2018-01-24 22:45:27
--------------------------------------------------------------------------------
Analyzed: Glenn Yarbrough / Come And Sit By My Side
--------------------------------------------------------------------------------
DR         Peak         RMS     Duration Track
--------------------------------------------------------------------------------
DR10      -1.17 dB   -15.36 dB      2:56 01-Waltzing Matilda
DR10      -1.17 dB   -13.90 dB      2:27 02-Red River Valley
DR11      -1.17 dB   -16.93 dB      2:35 03-All Around My Hat
DR9       -1.17 dB   -12.14 dB      1:50 04-My Mule Sal
DR12      -1.17 dB   -17.04 dB      2:10 05-Bow Down Your Head And Cry
DR11      -1.17 dB   -15.76 dB      2:57 06-Come Again
DR8       -1.17 dB   -12.53 dB      2:57 07-A Capital Ship
DR9       -1.17 dB   -13.35 dB      2:33 08-Dark As A Dungeon
DR10      -1.17 dB   -13.62 dB      1:34 09-The Tailor And The Mouse
DR10      -1.17 dB   -15.60 dB      2:37 10-Banks Of The Ohio
DR9       -1.17 dB   -12.82 dB      2:23 11-John Hardy
DR10      -1.17 dB   -14.34 dB      2:10 12-Suspiros del Chanchamayo
DR10      -1.17 dB   -15.07 dB      2:48 13-Old Maid's Song
DR9       -1.17 dB   -12.62 dB      1:39 14-Lonesome Valley
--------------------------------------------------------------------------------
Number of tracks:  14
Official DR value: DR10
Samplerate:        44100 Hz
Channels:          2
Bits per sample:   24
Bitrate:           1329 kbps
Codec:             FLAC
================================================================================
Не забывайте говорить Спасибо. Не уходите с раздачи!   
Торрент: Зарегистрирован [24 янв 2018, 20:03]
Статус:
Проверен
 
.torrent скачан: 0 раз
Хэш: 3eea12982a4d6638d96d336a7b8898fae3d465db
Размер: 299.98 МБ (314 553 119 байт)
   Стать Автором раздачи
   
Цитата
  • Похожие торренты
    Ответы
    Просмотры
    Последнее сообщение

Вернуться в Поп-музыка (Hi-Res stereo)

Кто сейчас на конференции

Сейчас эту тему просматривают: нет зарегистрированных пользователей и гости: 1