[TR24][OF] Georgia Gibbs - Call Me Georgia Gibbs - 1966/2016 (Traditional Pop, Oldies)

 Статистика раздачи 
Размер: 1.1 ГБ   |  Зарегистрирован: 04 май 2018, 08:55   |   .torrent скачан: 0 раз
Сидеров: 0  [ 0 байт/сек ]     Личеров: 0  [ 0 байт/сек ]  
  
Аватара пользователя
Главный редактор
Главный редактор
 
Раздал: 90.01 ТБ
Скачал: 3.78 ТБ
Ратио: 24.248
Сообщения: 274788
Стаж: 9 лет 1 месяц 19 дней
Откуда: Санкт-Петербург

Georgia Gibbs - Call Me Georgia Gibbs
Формат записи/Источник записи: [TR24][OF]
Наличие водяных знаков: Нет
Год издания/переиздания диска: 1966/2016
Жанр: Traditional Pop, Oldies
Издатель (лейбл): Bell
Продолжительность: 30:33
Наличие сканов в содержимом раздачи: Только обложка альбома
Треклист:
01. Call Me (2:16)
02. Blue Grass (2:07)
03. Don't Cry Joe (2:16)
04. You Can Never Get Away From Me (2:39)
05. Big Wide World (2:53)
06. Kiss Of Fire (2:38)
07. Let Me Cry On Your Shoulder (2:29)
08. Let Him Know (2:09)
09. Venice Blue (2:58)
10. I Wouldn't Have It Any Other Way (2:47)
11. In Time (2:52)
12. Let Me Dream (2:29)
 
Georgia Gibbs was an American popular singer and vocal entertainer rooted in jazz. Already singing publicly in her early teens, Gibbs first achieved acclaim (and notoriety) in the mid-1950s interpreting songs originating with the black rhythm and blues community and later as a featured vocalist on a long list of radio and television variety and comedy programs. Her key attribute was tremendous versatility and an uncommon stylistic range from melancholy ballad to uptempo swinging jazz and rock and roll.
A constant visitor to the charts in the first half of the 1950s, Georgia Gibbs failed to leave as strong an imprint as many of her fellow stars, at least in part because of her versatility. She did ballads, straight pop, novelties, pop-jazz, cha-chas – whatever the marketplace might take, she could adapt. In the mid-'50s she, like many other white pop singers, covered R&B hits for the pop audience. Today's she's most remembered for outselling Etta James (with a cover of "The Wallflower," renamed "Dance with Me Henry") and LaVern Baker (on "Tweedle Dee"), although this phase of her career was pretty brief.

Контейнер: FLAC (*.flac)
Тип рипа: tracks
Разрядность: 24/192
Формат: PCM
Количество каналов: 2.0
Код: Выделить всё
foobar2000 1.3.9 / Dynamic Range Meter 1.1.1
log date: 2018-05-04 10:51:20
--------------------------------------------------------------------------------
Analyzed: Georgia Gibbs / Call Me Georgia Gibbs
--------------------------------------------------------------------------------
DR         Peak         RMS     Duration Track
--------------------------------------------------------------------------------
DR11      -0.43 dB   -14.70 dB      2:16 01-Call Me
DR10      -2.50 dB   -15.34 dB      2:07 02-Blue Grass
DR10      -2.41 dB   -15.12 dB      2:16 03-Don't Cry Joe
DR11      -0.30 dB   -13.94 dB      2:39 04-You Can Never Get Away From Me
DR10      -3.38 dB   -16.91 dB      2:53 05-Big Wide World
DR9       -1.36 dB   -13.27 dB      2:38 06-Kiss Of Fire
DR10      -1.72 dB   -14.26 dB      2:29 07-Let Me Cry On Your Shoulder
DR12      -0.30 dB   -15.11 dB      2:09 08-Let Him Know
DR9       -2.70 dB   -14.65 dB      2:58 09-Venice Blue
DR11      -0.67 dB   -14.05 dB      2:47 10-I Wouldn't Have It Any Other Way
DR10      -2.37 dB   -15.65 dB      2:52 11-In Time
DR10      -1.48 dB   -16.03 dB      2:29 12-Let Me Dream
--------------------------------------------------------------------------------
Number of tracks:  12
Official DR value: DR10
Samplerate:        192000 Hz
Channels:          2
Bits per sample:   24
Bitrate:           5242 kbps
Codec:             FLAC
================================================================================
Источник: hdtracks.com[/spoiler]
Не забывайте говорить Спасибо. Не уходите с раздачи!   
Торрент: Зарегистрирован [04 май 2018, 08:55]
Статус:
Проверен
 
.torrent скачан: 0 раз
Хэш: e59f34569e7f520d951df8f54aa8f7dd738be199
Размер: 1.1 ГБ (1 182 759 539 байт)
   Стать Автором раздачи
   
Цитата

Вернуться в Поп-музыка (Hi-Res stereo)

Кто сейчас на конференции

Сейчас эту тему просматривают: нет зарегистрированных пользователей и гости: 1