[TR24][OF] Marina Kaye - Fearless (Deluxe Edition) - 2015 (Pop)

 Статистика раздачи 
Размер: 788.32 МБ   |  Зарегистрирован: 07 ноя 2017, 20:50   |   .torrent скачан: 0 раз
Сидеров: 0  [ 0 байт/сек ]     Личеров: 0  [ 0 байт/сек ]  
  
Аватара пользователя
Главный редактор
Главный редактор
 
Раздал: 90.01 ТБ
Скачал: 3.78 ТБ
Ратио: 24.248
Сообщения: 273485
Стаж: 9 лет 1 месяц 11 дней
Откуда: Санкт-Петербург
СообщениеДобавлено: 07 ноя 2017, 20:50


Marina Kaye / Fearless (Deluxe Edition)
Формат записи/Источник записи: [TR24][OF]
Жанр: Pop
Носитель: WEB
Год издания: 2015
Издатель (лейбл): Universal Music Division Capitol Music
Страна исполнителя (группы): France
Наличие водяных знаков: Нет
Продолжительность: 1:09:40
Наличие сканов в содержимом раздачи: Да, PDF буклет
Треклист:
01. Homeless (3:41)
02. Mirror Mirror (3:49)
03. Dancing With The Devil (3:38)
04. Sounds Like Heaven (ft. Lindsey Stirling) (4:25)
05. Freeze You Out (4:05)
06. Iron Heart (3:43)
07. Dark Star (2:45)
08. Traitor (2:39)
09. Taken (3:27)
10. Live Before 1 Die (3:29)
11. The Price I've Had To Pay (4:03)
12. Feed The Wolf In Me (3:14)
13. You Had Your Fun (3:35)
14. Won't Be Here This Time (3:14)
15. Homeless (Acoustic Version - Lame de son) (4:35)
16. The Price I've Had To Pay (Acoustic Version - Lame de son) (4:39)
17. Freeze You Out (Acoustic) (3:38)
18. Dark Star (Acoustic) (3:12)
19. Dancing With The Devil (Epic Empire Remix) (3:12)

Контейнер: FLAC (*.flac)
Тип рипа: tracks
Разрядность: 24/44,1
Формат: PCM
Количество каналов: 2.0
Код: Выделить всё
foobar2000 1.3.16 / Замер динамического диапазона (DR) 1.1.1
Дата отчёта:  2017-11-07 23:46:49
--------------------------------------------------------------------------------
Анализ:   Marina Kaye / Fearless
--------------------------------------------------------------------------------
DR         Пики         RMS           Продолжительность трека
--------------------------------------------------------------------------------
DR5        0.00 дБ    -7.65 дБ      3:43 01-Homeless
DR5       -0.10 дБ    -7.42 дБ      3:50 02-Mirror Mirror
DR6       -0.10 дБ    -7.97 дБ      3:41 03-Dancing With the Devil
DR7       -0.10 дБ    -9.91 дБ      4:28 04-Sounds Like Heaven (feat. Lindsey Stirling)
DR5       -0.10 дБ    -7.31 дБ      4:09 05-Freeze You Out
DR5       -0.10 дБ    -7.75 дБ      3:47 06-Iron Heart
DR7       -0.10 дБ    -9.92 дБ      2:48 07-Dark Star
DR5       -0.10 дБ    -7.30 дБ      2:42 08-Traitor
DR6       -0.10 дБ    -9.29 дБ      3:28 09-Taken
DR7        0.00 дБ    -9.43 дБ      3:32 10-Live Before I Die
DR7       -0.09 дБ   -11.24 дБ      4:06 11-The Price I've Had To Pay
DR6       -0.10 дБ    -7.49 дБ      3:17 12-Feed the Wolf In Me
DR6       -0.10 дБ    -9.36 дБ      3:36 13-You Had Your Fun
DR7       -0.10 дБ    -9.03 дБ      3:17 14-Won't Be Here This Time
DR6       -0.48 дБ    -9.59 дБ      4:37 15-Homeless (Acoustic Version / Lame de son)
DR7       -0.33 дБ   -10.06 дБ      4:42 16-The Price I've Had To Pay (Acoustic Version / Lame de son)
DR9       -0.10 дБ   -11.26 дБ      3:39 17-Freeze You Out (Acoustic)
DR8       -0.10 дБ   -10.19 дБ      3:14 18-Dark Star (Acoustic)
DR6       -0.10 дБ    -7.79 дБ      3:12 19-Dancing With the Devil (Epic Empire Remix)
--------------------------------------------------------------------------------
Количество треков: 19
Реальные значения DR: DR6
Частота:   44100 Гц
Каналов:   2
Разрядность:   24
Битрейт:   1659 кбит/с
Кодек:   FLAC
================================================================================
Код: Выделить всё
General
Complete name                            : R:\Marina Kaye - Fearless (Deluxe) (2015) [24bit Hi-Res]\01. Homeless.flac
Format                                   : FLAC
Format/Info                              : Free Lossless Audio Codec
File size                                : 42.7 MiB
Duration                                 : 3 min 43 s
Overall bit rate mode                    : Variable
Overall bit rate                         : 1 606 kb/s
Album                                    : Fearless (Deluxe)
Album/Performer                          : Marina Kaye
Track name                               : Homeless
Track name/Position                      : 01
Performer                                : Marina Kaye
Genre                                    : Pop
Recorded date                            : 2015
Audio
Format                                   : FLAC
Format/Info                              : Free Lossless Audio Codec
Duration                                 : 3 min 43 s
Bit rate mode                            : Variable
Bit rate                                 : 1 606 kb/s
Channel(s)                               : 2 channels
Channel positions                        : Front: L R
Sampling rate                            : 44.1 kHz
Bit depth                                : 24 bits
Stream size                              : 42.7 MiB (100%)
Writing library                          : libFLAC 1.3.2 (UTC 2017-01-01)
General
Complete name                            : R:\Marina Kaye - Fearless (Deluxe) (2015) [24bit Hi-Res]\02. Mirror Mirror.flac
Format                                   : FLAC
Format/Info                              : Free Lossless Audio Codec
File size                                : 45.3 MiB
Duration                                 : 3 min 50 s
Overall bit rate mode                    : Variable
Overall bit rate                         : 1 650 kb/s
Album                                    : Fearless (Deluxe)
Album/Performer                          : Marina Kaye
Track name                               : Mirror Mirror
Track name/Position                      : 02
Performer                                : Marina Kaye
Genre                                    : Pop
Recorded date                            : 2015
Audio
Format                                   : FLAC
Format/Info                              : Free Lossless Audio Codec
Duration                                 : 3 min 50 s
Bit rate mode                            : Variable
Bit rate                                 : 1 650 kb/s
Channel(s)                               : 2 channels
Channel positions                        : Front: L R
Sampling rate                            : 44.1 kHz
Bit depth                                : 24 bits
Stream size                              : 45.3 MiB (100%)
Writing library                          : libFLAC 1.3.2 (UTC 2017-01-01)
General
Complete name                            : R:\Marina Kaye - Fearless (Deluxe) (2015) [24bit Hi-Res]\03. Dancing With the Devil.flac
Format                                   : FLAC
Format/Info                              : Free Lossless Audio Codec
File size                                : 42.6 MiB
Duration                                 : 3 min 41 s
Overall bit rate mode                    : Variable
Overall bit rate                         : 1 612 kb/s
Album                                    : Fearless (Deluxe)
Album/Performer                          : Marina Kaye
Track name                               : Dancing With the Devil
Track name/Position                      : 03
Performer                                : Marina Kaye
Genre                                    : Pop
Recorded date                            : 2015
Audio
Format                                   : FLAC
Format/Info                              : Free Lossless Audio Codec
Duration                                 : 3 min 41 s
Bit rate mode                            : Variable
Bit rate                                 : 1 612 kb/s
Channel(s)                               : 2 channels
Channel positions                        : Front: L R
Sampling rate                            : 44.1 kHz
Bit depth                                : 24 bits
Stream size                              : 42.5 MiB (100%)
Writing library                          : libFLAC 1.3.2 (UTC 2017-01-01)
General
Complete name                            : R:\Marina Kaye - Fearless (Deluxe) (2015) [24bit Hi-Res]\04. Sounds Like Heaven (feat. Lindsey Stirling).flac
Format                                   : FLAC
Format/Info                              : Free Lossless Audio Codec
File size                                : 49.4 MiB
Duration                                 : 4 min 27 s
Overall bit rate mode                    : Variable
Overall bit rate                         : 1 548 kb/s
Album                                    : Fearless (Deluxe)
Album/Performer                          : Marina Kaye
Track name                               : Sounds Like Heaven (feat. Lindsey Stirling)
Track name/Position                      : 04
Performer                                : Marina Kaye
Genre                                    : Pop
Recorded date                            : 2015
Audio
Format                                   : FLAC
Format/Info                              : Free Lossless Audio Codec
Duration                                 : 4 min 27 s
Bit rate mode                            : Variable
Bit rate                                 : 1 548 kb/s
Channel(s)                               : 2 channels
Channel positions                        : Front: L R
Sampling rate                            : 44.1 kHz
Bit depth                                : 24 bits
Stream size                              : 49.4 MiB (100%)
Writing library                          : libFLAC 1.3.2 (UTC 2017-01-01)
General
Complete name                            : R:\Marina Kaye - Fearless (Deluxe) (2015) [24bit Hi-Res]\05. Freeze You Out.flac
Format                                   : FLAC
Format/Info                              : Free Lossless Audio Codec
File size                                : 48.8 MiB
Duration                                 : 4 min 8 s
Overall bit rate mode                    : Variable
Overall bit rate                         : 1 645 kb/s
Album                                    : Fearless (Deluxe)
Album/Performer                          : Marina Kaye
Track name                               : Freeze You Out
Track name/Position                      : 05
Performer                                : Marina Kaye
Genre                                    : Pop
Recorded date                            : 2015
Audio
Format                                   : FLAC
Format/Info                              : Free Lossless Audio Codec
Duration                                 : 4 min 8 s
Bit rate mode                            : Variable
Bit rate                                 : 1 645 kb/s
Channel(s)                               : 2 channels
Channel positions                        : Front: L R
Sampling rate                            : 44.1 kHz
Bit depth                                : 24 bits
Stream size                              : 48.7 MiB (100%)
Writing library                          : libFLAC 1.3.2 (UTC 2017-01-01)
General
Complete name                            : R:\Marina Kaye - Fearless (Deluxe) (2015) [24bit Hi-Res]\06. Iron Heart.flac
Format                                   : FLAC
Format/Info                              : Free Lossless Audio Codec
File size                                : 43.8 MiB
Duration                                 : 3 min 47 s
Overall bit rate mode                    : Variable
Overall bit rate                         : 1 620 kb/s
Album                                    : Fearless (Deluxe)
Album/Performer                          : Marina Kaye
Track name                               : Iron Heart
Track name/Position                      : 06
Performer                                : Marina Kaye
Genre                                    : Pop
Recorded date                            : 2015
Audio
Format                                   : FLAC
Format/Info                              : Free Lossless Audio Codec
Duration                                 : 3 min 47 s
Bit rate mode                            : Variable
Bit rate                                 : 1 620 kb/s
Channel(s)                               : 2 channels
Channel positions                        : Front: L R
Sampling rate                            : 44.1 kHz
Bit depth                                : 24 bits
Stream size                              : 43.8 MiB (100%)
Writing library                          : libFLAC 1.3.2 (UTC 2017-01-01)
General
Complete name                            : R:\Marina Kaye - Fearless (Deluxe) (2015) [24bit Hi-Res]\07. Dark Star.flac
Format                                   : FLAC
Format/Info                              : Free Lossless Audio Codec
File size                                : 28.8 MiB
Duration                                 : 2 min 48 s
Overall bit rate mode                    : Variable
Overall bit rate                         : 1 439 kb/s
Album                                    : Fearless (Deluxe)
Album/Performer                          : Marina Kaye
Track name                               : Dark Star
Track name/Position                      : 07
Performer                                : Marina Kaye
Genre                                    : Pop
Recorded date                            : 2015
Audio
Format                                   : FLAC
Format/Info                              : Free Lossless Audio Codec
Duration                                 : 2 min 48 s
Bit rate mode                            : Variable
Bit rate                                 : 1 438 kb/s
Channel(s)                               : 2 channels
Channel positions                        : Front: L R
Sampling rate                            : 44.1 kHz
Bit depth                                : 24 bits
Stream size                              : 28.8 MiB (100%)
Writing library                          : libFLAC 1.3.2 (UTC 2017-01-01)
General
Complete name                            : R:\Marina Kaye - Fearless (Deluxe) (2015) [24bit Hi-Res]\08. Traitor.flac
Format                                   : FLAC
Format/Info                              : Free Lossless Audio Codec
File size                                : 32.3 MiB
Duration                                 : 2 min 41 s
Overall bit rate mode                    : Variable
Overall bit rate                         : 1 672 kb/s
Album                                    : Fearless (Deluxe)
Album/Performer                          : Marina Kaye
Track name                               : Traitor
Track name/Position                      : 08
Performer                                : Marina Kaye
Genre                                    : Pop
Recorded date                            : 2015
Audio
Format                                   : FLAC
Format/Info                              : Free Lossless Audio Codec
Duration                                 : 2 min 41 s
Bit rate mode                            : Variable
Bit rate                                 : 1 672 kb/s
Channel(s)                               : 2 channels
Channel positions                        : Front: L R
Sampling rate                            : 44.1 kHz
Bit depth                                : 24 bits
Stream size                              : 32.3 MiB (100%)
Writing library                          : libFLAC 1.3.2 (UTC 2017-01-01)
General
Complete name                            : R:\Marina Kaye - Fearless (Deluxe) (2015) [24bit Hi-Res]\09. Taken.flac
Format                                   : FLAC
Format/Info                              : Free Lossless Audio Codec
File size                                : 39.8 MiB
Duration                                 : 3 min 28 s
Overall bit rate mode                    : Variable
Overall bit rate                         : 1 603 kb/s
Album                                    : Fearless (Deluxe)
Album/Performer                          : Marina Kaye
Track name                               : Taken
Track name/Position                      : 09
Performer                                : Marina Kaye
Genre                                    : Pop
Recorded date                            : 2015
Audio
Format                                   : FLAC
Format/Info                              : Free Lossless Audio Codec
Duration                                 : 3 min 28 s
Bit rate mode                            : Variable
Bit rate                                 : 1 603 kb/s
Channel(s)                               : 2 channels
Channel positions                        : Front: L R
Sampling rate                            : 44.1 kHz
Bit depth                                : 24 bits
Stream size                              : 39.8 MiB (100%)
Writing library                          : libFLAC 1.3.2 (UTC 2017-01-01)
General
Complete name                            : R:\Marina Kaye - Fearless (Deluxe) (2015) [24bit Hi-Res]\10. Live Before I Die.flac
Format                                   : FLAC
Format/Info                              : Free Lossless Audio Codec
File size                                : 39.6 MiB
Duration                                 : 3 min 31 s
Overall bit rate mode                    : Variable
Overall bit rate                         : 1 570 kb/s
Album                                    : Fearless (Deluxe)
Album/Performer                          : Marina Kaye
Track name                               : Live Before I Die
Track name/Position                      : 10
Performer                                : Marina Kaye
Genre                                    : Pop
Recorded date                            : 2015
Audio
Format                                   : FLAC
Format/Info                              : Free Lossless Audio Codec
Duration                                 : 3 min 31 s
Bit rate mode                            : Variable
Bit rate                                 : 1 569 kb/s
Channel(s)                               : 2 channels
Channel positions                        : Front: L R
Sampling rate                            : 44.1 kHz
Bit depth                                : 24 bits
Stream size                              : 39.6 MiB (100%)
Writing library                          : libFLAC 1.3.2 (UTC 2017-01-01)
General
Complete name                            : R:\Marina Kaye - Fearless (Deluxe) (2015) [24bit Hi-Res]\11. The Price I've Had To Pay.flac
Format                                   : FLAC
Format/Info                              : Free Lossless Audio Codec
File size                                : 44.8 MiB
Duration                                 : 4 min 5 s
Overall bit rate mode                    : Variable
Overall bit rate                         : 1 528 kb/s
Album                                    : Fearless (Deluxe)
Album/Performer                          : Marina Kaye
Track name                               : The Price I've Had To Pay
Track name/Position                      : 11
Performer                                : Marina Kaye
Genre                                    : Pop
Recorded date                            : 2015
Audio
Format                                   : FLAC
Format/Info                              : Free Lossless Audio Codec
Duration                                 : 4 min 5 s
Bit rate mode                            : Variable
Bit rate                                 : 1 528 kb/s
Channel(s)                               : 2 channels
Channel positions                        : Front: L R
Sampling rate                            : 44.1 kHz
Bit depth                                : 24 bits
Stream size                              : 44.8 MiB (100%)
Writing library                          : libFLAC 1.3.2 (UTC 2017-01-01)
General
Complete name                            : R:\Marina Kaye - Fearless (Deluxe) (2015) [24bit Hi-Res]\12. Feed the Wolf In Me.flac
Format                                   : FLAC
Format/Info                              : Free Lossless Audio Codec
File size                                : 39.4 MiB
Duration                                 : 3 min 17 s
Overall bit rate mode                    : Variable
Overall bit rate                         : 1 676 kb/s
Album                                    : Fearless (Deluxe)
Album/Performer                          : Marina Kaye
Track name                               : Feed the Wolf In Me
Track name/Position                      : 12
Performer                                : Marina Kaye
Genre                                    : Pop
Recorded date                            : 2015
Audio
Format                                   : FLAC
Format/Info                              : Free Lossless Audio Codec
Duration                                 : 3 min 17 s
Bit rate mode                            : Variable
Bit rate                                 : 1 676 kb/s
Channel(s)                               : 2 channels
Channel positions                        : Front: L R
Sampling rate                            : 44.1 kHz
Bit depth                                : 24 bits
Stream size                              : 39.4 MiB (100%)
Writing library                          : libFLAC 1.3.2 (UTC 2017-01-01)
General
Complete name                            : R:\Marina Kaye - Fearless (Deluxe) (2015) [24bit Hi-Res]\13. You Had Your Fun.flac
Format                                   : FLAC
Format/Info                              : Free Lossless Audio Codec
File size                                : 39.0 MiB
Duration                                 : 3 min 36 s
Overall bit rate mode                    : Variable
Overall bit rate                         : 1 514 kb/s
Album                                    : Fearless (Deluxe)
Album/Performer                          : Marina Kaye
Track name                               : You Had Your Fun
Track name/Position                      : 13
Performer                                : Marina Kaye
Genre                                    : Pop
Recorded date                            : 2015
Audio
Format                                   : FLAC
Format/Info                              : Free Lossless Audio Codec
Duration                                 : 3 min 36 s
Bit rate mode                            : Variable
Bit rate                                 : 1 514 kb/s
Channel(s)                               : 2 channels
Channel positions                        : Front: L R
Sampling rate                            : 44.1 kHz
Bit depth                                : 24 bits
Stream size                              : 39.0 MiB (100%)
Writing library                          : libFLAC 1.3.2 (UTC 2017-01-01)
General
Complete name                            : R:\Marina Kaye - Fearless (Deluxe) (2015) [24bit Hi-Res]\14. Won't Be Here This Time.flac
Format                                   : FLAC
Format/Info                              : Free Lossless Audio Codec
File size                                : 35.8 MiB
Duration                                 : 3 min 16 s
Overall bit rate mode                    : Variable
Overall bit rate                         : 1 528 kb/s
Album                                    : Fearless (Deluxe)
Album/Performer                          : Marina Kaye
Track name                               : Won't Be Here This Time
Track name/Position                      : 14
Performer                                : Marina Kaye
Genre                                    : Pop
Recorded date                            : 2015
Audio
Format                                   : FLAC
Format/Info                              : Free Lossless Audio Codec
Duration                                 : 3 min 16 s
Bit rate mode                            : Variable
Bit rate                                 : 1 528 kb/s
Channel(s)                               : 2 channels
Channel positions                        : Front: L R
Sampling rate                            : 44.1 kHz
Bit depth                                : 24 bits
Stream size                              : 35.8 MiB (100%)
Writing library                          : libFLAC 1.3.2 (UTC 2017-01-01)
General
Complete name                            : R:\Marina Kaye - Fearless (Deluxe) (2015) [24bit Hi-Res]\15. Homeless (Acoustic Version - Lame de son).flac
Format                                   : FLAC
Format/Info                              : Free Lossless Audio Codec
File size                                : 46.3 MiB
Duration                                 : 4 min 37 s
Overall bit rate mode                    : Variable
Overall bit rate                         : 1 400 kb/s
Album                                    : Fearless (Deluxe)
Album/Performer                          : Marina Kaye
Track name                               : Homeless (Acoustic Version / Lame de son)
Track name/Position                      : 15
Performer                                : Marina Kaye
Genre                                    : Pop
Recorded date                            : 2015
Audio
Format                                   : FLAC
Format/Info                              : Free Lossless Audio Codec
Duration                                 : 4 min 37 s
Bit rate mode                            : Variable
Bit rate                                 : 1 400 kb/s
Channel(s)                               : 2 channels
Channel positions                        : Front: L R
Sampling rate                            : 44.1 kHz
Bit depth                                : 24 bits
Stream size                              : 46.3 MiB (100%)
Writing library                          : libFLAC 1.3.2 (UTC 2017-01-01)
General
Complete name                            : R:\Marina Kaye - Fearless (Deluxe) (2015) [24bit Hi-Res]\16. The Price I've Had To Pay (Acoustic Version - Lame de son).flac
Format                                   : FLAC
Format/Info                              : Free Lossless Audio Codec
File size                                : 47.8 MiB
Duration                                 : 4 min 41 s
Overall bit rate mode                    : Variable
Overall bit rate                         : 1 424 kb/s
Album                                    : Fearless (Deluxe)
Album/Performer                          : Marina Kaye
Track name                               : The Price I've Had To Pay (Acoustic Version / Lame de son)
Track name/Position                      : 16
Performer                                : Marina Kaye
Genre                                    : Pop
Recorded date                            : 2015
Audio
Format                                   : FLAC
Format/Info                              : Free Lossless Audio Codec
Duration                                 : 4 min 41 s
Bit rate mode                            : Variable
Bit rate                                 : 1 424 kb/s
Channel(s)                               : 2 channels
Channel positions                        : Front: L R
Sampling rate                            : 44.1 kHz
Bit depth                                : 24 bits
Stream size                              : 47.8 MiB (100%)
Writing library                          : libFLAC 1.3.2 (UTC 2017-01-01)
General
Complete name                            : R:\Marina Kaye - Fearless (Deluxe) (2015) [24bit Hi-Res]\17. Freeze You Out (Acoustic).flac
Format                                   : FLAC
Format/Info                              : Free Lossless Audio Codec
File size                                : 41.5 MiB
Duration                                 : 3 min 39 s
Overall bit rate mode                    : Variable
Overall bit rate                         : 1 585 kb/s
Album                                    : Fearless (Deluxe)
Album/Performer                          : Marina Kaye
Track name                               : Freeze You Out (Acoustic)
Track name/Position                      : 17
Performer                                : Marina Kaye
Genre                                    : Pop
Recorded date                            : 2015
Audio
Format                                   : FLAC
Format/Info                              : Free Lossless Audio Codec
Duration                                 : 3 min 39 s
Bit rate mode                            : Variable
Bit rate                                 : 1 584 kb/s
Channel(s)                               : 2 channels
Channel positions                        : Front: L R
Sampling rate                            : 44.1 kHz
Bit depth                                : 24 bits
Stream size                              : 41.5 MiB (100%)
Writing library                          : libFLAC 1.3.2 (UTC 2017-01-01)
General
Complete name                            : R:\Marina Kaye - Fearless (Deluxe) (2015) [24bit Hi-Res]\18. Dark Star (Acoustic).flac
Format                                   : FLAC
Format/Info                              : Free Lossless Audio Codec
File size                                : 33.8 MiB
Duration                                 : 3 min 13 s
Overall bit rate mode                    : Variable
Overall bit rate                         : 1 464 kb/s
Album                                    : Fearless (Deluxe)
Album/Performer                          : Marina Kaye
Track name                               : Dark Star (Acoustic)
Track name/Position                      : 18
Performer                                : Marina Kaye
Genre                                    : Pop
Recorded date                            : 2015
Audio
Format                                   : FLAC
Format/Info                              : Free Lossless Audio Codec
Duration                                 : 3 min 13 s
Bit rate mode                            : Variable
Bit rate                                 : 1 464 kb/s
Channel(s)                               : 2 channels
Channel positions                        : Front: L R
Sampling rate                            : 44.1 kHz
Bit depth                                : 24 bits
Stream size                              : 33.8 MiB (100%)
Writing library                          : libFLAC 1.3.2 (UTC 2017-01-01)
General
Complete name                            : R:\Marina Kaye - Fearless (Deluxe) (2015) [24bit Hi-Res]\19. Dancing With the Devil (Epic Empire Remix).flac
Format                                   : FLAC
Format/Info                              : Free Lossless Audio Codec
File size                                : 38.1 MiB
Duration                                 : 3 min 12 s
Overall bit rate mode                    : Variable
Overall bit rate                         : 1 659 kb/s
Album                                    : Fearless (Deluxe)
Album/Performer                          : Marina Kaye
Track name                               : Dancing With the Devil (Epic Empire Remix)
Track name/Position                      : 19
Performer                                : Marina Kaye
Genre                                    : Pop
Recorded date                            : 2015
Audio
Format                                   : FLAC
Format/Info                              : Free Lossless Audio Codec
Duration                                 : 3 min 12 s
Bit rate mode                            : Variable
Bit rate                                 : 1 659 kb/s
Channel(s)                               : 2 channels
Channel positions                        : Front: L R
Sampling rate                            : 44.1 kHz
Bit depth                                : 24 bits
Stream size                              : 38.1 MiB (100%)
Writing library                          : libFLAC 1.3.2 (UTC 2017-01-01)
General
Complete name                            : R:\Marina Kaye - Fearless (Deluxe) (2015) [24bit Hi-Res]\booklet.pdf
Format                                   : PDF
Format version                           : 1.4
File size                                : 8.23 MiB
Text
Format                                   : PDF
General
Complete name                            : R:\Marina Kaye - Fearless (Deluxe) (2015) [24bit Hi-Res]\foo_dr.txt
File size                                : 2.22 KiB
General
Complete name                            : R:\Marina Kaye - Fearless (Deluxe) (2015) [24bit Hi-Res]\front.jpg
Format                                   : JPEG
File size                                : 158 KiB
Image
Format                                   : JPEG
Width                                    : 1 400 pixels
Height                                   : 1 400 pixels
Color space                              : YUV
Chroma subsampling                       : 4:2:0
Bit depth                                : 8 bits
Compression mode                         : Lossy
Stream size                              : 158 KiB (100%)
General
Complete name                            : R:\Marina Kaye - Fearless (Deluxe) (2015) [24bit Hi-Res]\front.png
Format                                   : PNG
Format/Info                              : Portable Network Graphic
File size                                : 434 KiB
Image
Format                                   : PNG
Format/Info                              : Portable Network Graphic
Format_Compression                       : LZ77
Width                                    : 600 pixels
Height                                   : 600 pixels
Bit depth                                : 32 bits
Compression mode                         : Lossless
Stream size                              : 434 KiB (100%)

Источник (релизер): WEBДополнительно: Найдено на просторах интернета, выложено как есть
Не забывайте говорить Спасибо. Не уходите с раздачи!   
Торрент: Зарегистрирован [07 ноя 2017, 20:50]
Статус:
Проверен
 
.torrent скачан: 0 раз
Хэш: 9766b9dd574f3c6b28dfdbceca17584939154186
Размер: 788.32 МБ (826 609 225 байт)
   Стать Автором раздачи
   
Цитата
  • Похожие торренты
    Ответы
    Просмотры
    Последнее сообщение

Вернуться в Поп-музыка (Hi-Res stereo)

Кто сейчас на конференции

Сейчас эту тему просматривают: нет зарегистрированных пользователей и гости: 1