[TR24][OF] Anna Ratto - Tantas - 2018 (Pop, Latin, MPB)

 Статистика раздачи 
Размер: 352.74 МБ   |  Зарегистрирован: 10 апр 2018, 09:02   |   .torrent скачан: 0 раз
Сидеров: 0  [ 0 байт/сек ]     Личеров: 0  [ 0 байт/сек ]  
  
Аватара пользователя
Главный редактор
Главный редактор
 
Раздал: 90.01 ТБ
Скачал: 3.78 ТБ
Ратио: 24.248
Сообщения: 274106
Стаж: 9 лет 1 месяц 17 дней
Откуда: Санкт-Петербург
СообщениеДобавлено: 10 апр 2018, 09:02


Anna Ratto - Tantas
Формат записи/Источник записи: [TR24][OF]
Наличие водяных знаков: Нет
Год издания/переиздания диска: 2018
Жанр: Pop, Latin, MPB
Издатель (лейбл): Biscoito Fino
Продолжительность: 30:42
Наличие сканов в содержимом раздачи: Только обложка альбома
Треклист:
01. Pode Me Chamar (3:46)
02. Frevolenta (2:45)
03. Inemurchecivel (3:24)
04. Avientame (2:45)
05. Pra Voce Dar o Nome (3:43)
06. Dom (3:26)
07. Desbunde (3:19)
08. Nicho (2:49)
09. Nem Pensar (2:14)
10. Ana Luisa (2:32)
 
A palavra que melhor traduz o novo álbum da cantora e compositora Anna Ratto está no título: Tantas. É assim, plural e renovada, que ela surge em seu quinto CD, primeiro pela Biscoito Fino. Disco de intérprete – Anna assina apenas uma canção, em parceria com Jam da Silva -, a ideia foi dar voz a outros compositores: “Queria gravar essa gente talentosa que está ao meu redor, me senti totalmente desobrigada a compor dessa vez. Meu ultimo projeto era um apanhado da minha carreira, fechava um ciclo, estava na hora de experimentar novas ideias”, conta Anna.
Nesse apanhado de compositores, foram chegando canções inéditas de Caio Prado, Matheus Von Krüger, Ana Clara Horta, Rodrigo Maranhão, Bruna Caram e Duda Brack.
Produzido por Jr. Tostoi e Marcelo Vig, o álbum contou com as participações de Carlos Posada em “Desbunde”, em um texto feito por ele, inspirado da música de Matheus VK e João Bernardo, e do Quinteto da Paraíba, que também assina os arranjos da lírica “Ana Luisa”, composta sob encomenda por Rodrigo Maranhão. Iniciado em 2016 e interrompido para o nascimento de Caio, primeiro fi lho de Anna Ratto, Tantas traduz muito das experiências pessoais e musicais vividas nos últimos tempos. “Fomos trocando fi gurinhas e vendo o disco tomar corpo. Vivendo e experimentando as coisas sem pressa. Foi muito novo e prazeroso pra mim”, fi naliza.
Fotografada pela craque Nana Moraes, Anna Ratto surge na capa com um fi gurino especialíssimo, criado e desenhado nas próprias fotos pelo estilista Ronaldo Fraga.
Контейнер: FLAC (*.flac)
Тип рипа: tracks
Разрядность: 24/44,1
Формат: PCM
Количество каналов: 2.0
Код: Выделить всё
foobar2000 1.3.9 / Dynamic Range Meter 1.1.1
log date: 2018-04-10 11:49:14
--------------------------------------------------------------------------------
Analyzed: Anna Ratto / Tantas
--------------------------------------------------------------------------------
DR         Peak         RMS     Duration Track
--------------------------------------------------------------------------------
DR7       -0.32 dB    -9.65 dB      3:46 01-Pode Me Chamar
DR7       -0.32 dB   -10.05 dB      2:45 02-Frevolenta
DR7       -0.32 dB    -9.06 dB      3:24 03-Inemurchecivel
DR10      -0.91 dB   -12.96 dB      2:45 04-Avientame
DR9       -0.31 dB   -11.87 dB      3:43 05-Pra Voce Dar o Nome
DR7       -0.32 dB   -10.19 dB      3:26 06-Dom
DR8       -0.32 dB    -9.68 dB      3:19 07-Desbunde
DR10      -0.61 dB   -13.80 dB      2:49 08-Nicho
DR7       -0.32 dB   -10.17 dB      2:14 09-Nem Pensar
DR9       -0.31 dB   -11.10 dB      2:32 10-Ana Luisa
--------------------------------------------------------------------------------
Number of tracks:  10
Official DR value: DR8
Samplerate:        44100 Hz
Channels:          2
Bits per sample:   24
Bitrate:           1494 kbps
Codec:             FLAC
================================================================================
Источник: hdtracks.com[/spoiler]
Не забывайте говорить Спасибо. Не уходите с раздачи!   
Торрент: Зарегистрирован [10 апр 2018, 09:02]
Статус:
Проверен
 
.torrent скачан: 0 раз
Хэш: 1f1590723df3b648120161339b545208c9c8a1a4
Размер: 352.74 МБ (369 870 225 байт)
   Стать Автором раздачи
   
Цитата

Вернуться в Поп-музыка (Hi-Res stereo)

Кто сейчас на конференции

Сейчас эту тему просматривают: нет зарегистрированных пользователей и гости: 1