[TR24][OF] Carrie Underwood - Blown Away - 2012 (Pop, Country)

 Статистика раздачи 
Размер: 659.13 МБ   |  Зарегистрирован: 15 мар 2017, 12:37   |   .torrent скачан: 0 раз
Сидеров: 0  [ 0 байт/сек ]     Личеров: 0  [ 0 байт/сек ]  
  
Аватара пользователя
Главный редактор
Главный редактор
 
Раздал: 90.01 ТБ
Скачал: 3.78 ТБ
Ратио: 24.248
Сообщения: 274856
Стаж: 9 лет 1 месяц 20 дней
Откуда: Санкт-Петербург
СообщениеДобавлено: 15 мар 2017, 12:37


Carrie Underwood - Blown Away
Формат записи/Источник записи: [TR24][OF]
Наличие водяных знаков: Нет
Год издания/переиздания диска: 2012
Жанр: Pop, Country
Издатель (лейбл): 19 Recordings/Arista Nashville
Продолжительность: 55:38
Наличие сканов в содержимом раздачи: Только обложка альбома
Треклист:
01. Good Girl (3:25)
02. Blown Away (4:00)
03. Two Black Cadillacs (4:59)
04. See You Again (4:08)
05. Do You Think About Me (3:38)
06. Forever Changed (4:04)
07. Nobody Ever Told You (4:12)
08. One Way Ticket (3:58)
09. Thank God For Hometowns (4:04)
10. Good In Goodbye (4:19)
11. Leave Love Alone (3:21)
12. Cupid's Got A Shotgun (3:44)
13. Wine After Whiskey (3:53)
14. Who Are You (3:54)
Rec.: Starstruck Studios, February 27 – November 22, 2011.
 
Prior to the release of her fourth album, Blown Away, in the spring of 2012, Carrie Underwood claimed that she was getting back to having "real things to write about and real things to sing about" -- a sentiment that's all well and good but has precisely nothing to do with the brassy blowout of the finished product. Dispensing with any pretense that Underwood remains a down-home country girl -- the kind who takes carnival rides and sticks a daisy in her hair -- Blown Away is an unabashed glossy pop album, positioning Carrie as the heir to Shania Twain and Faith Hill's country diva act, pushing the comparisons so far that she looks like a runway refugee on the album cover and she concludes the hourlong marathon with a song written by Twain's former husband, Mutt Lange. Naturally, this showstopping act suits a former American Idol winner but, better still, this exercise in turn-of-the-millennium nostalgia is executed with skill and savvy, offering the kind of larger-than-life power ballads and cheerful, clomping arena country that have fallen out of favor in the early days of the 2010s. Not that Underwood and team -- led by producer Mark Bright and also featuring songwriters Ashley Gorley, Chris DeStefano, Josh Kear, Hillary Lindsey, and Ryan Tedder -- are ignorant of the country and pop trends of 2012. They find room for light, sunny pop ("Do You Think About Me," "Nobody Ever Told You"), a bit of Caribbean breeze on "One Way Ticket," and a stomping chant-along hook on "Leave Love Alone," and they splice Miranda Lambert and Gretchen Wilson together on the ludicrously fun "Cupid's Got a Shotgun," which is enough to make Blown Away not seem like a throwback even if its heart belongs to the days of diamond-certified albums. Sure, that diva worship makes it seem ever so slightly old-fashioned, yet this is Carrie's wheelhouse -- she's meant to sing these oversized ballads and hooks, she's meant to look as unattainable as she does on the cover. She's meant to be be a superstar and she's never seemed as comfortable with her calling as she does on Blown Away.

Контейнер: FLAC (*.flac)
Тип рипа: tracks
Разрядность: 24/44,1
Количество каналов: 2.0
Код: Выделить всё
foobar2000 1.3.9 / Dynamic Range Meter 1.1.1
log date: 2017-03-15 14:48:35
--------------------------------------------------------------------------------
Analyzed: Carrie Underwood / Blown Away
--------------------------------------------------------------------------------
DR         Peak         RMS     Duration Track
--------------------------------------------------------------------------------
DR5       -1.00 dB    -7.88 dB      3:25 01-Good Girl
DR4       -1.00 dB    -7.54 dB      4:00 02-Blown Away
DR6       -1.00 dB    -8.83 dB      4:59 03-Two Black Cadillacs
DR5       -1.00 dB    -7.86 dB      4:08 04-See You Again
DR7       -1.00 dB    -9.99 dB      3:38 05-Do You Think About Me
DR7       -1.00 dB   -11.28 dB      4:04 06-Forever Changed
DR7       -1.00 dB    -9.90 dB      4:12 07-Nobody Ever Told You
DR6       -1.00 dB    -8.66 dB      3:58 08-One Way Ticket
DR6       -1.00 dB    -8.88 dB      4:04 09-Thank God For Hometowns
DR5       -1.00 dB    -9.16 dB      4:19 10-Good In Goodbye
DR6       -1.00 dB    -8.97 dB      3:21 11-Leave Love Alone
DR6       -1.00 dB    -7.82 dB      3:44 12-Cupid's Got A Shotgun
DR5       -1.00 dB    -8.83 dB      3:53 13-Wine After Whiskey
DR5       -1.00 dB    -7.80 dB      3:54 14-Who Are You
--------------------------------------------------------------------------------
Number of tracks:  14
Official DR value: DR6
Samplerate:        44100 Hz
Channels:          2
Bits per sample:   24
Bitrate:           1673 kbps
Codec:             FLAC
================================================================================
Источник: hdtracks.com[/spoiler]
Не забывайте говорить Спасибо. Не уходите с раздачи!   
Торрент: Зарегистрирован [15 мар 2017, 12:37]
Статус:
Проверен
 
.torrent скачан: 0 раз
Хэш: cf5fa08c388380f9efafe9953cd3f4cdc22dafe3
Размер: 659.13 МБ (691 147 210 байт)
   Стать Автором раздачи
   
Цитата
  • Похожие торренты
    Ответы
    Просмотры
    Последнее сообщение

Вернуться в Поп-музыка (Hi-Res stereo)

Кто сейчас на конференции

Сейчас эту тему просматривают: нет зарегистрированных пользователей и гости: 1