[TR24][OF] Alex Hassilev - Affairs Of The Heart - 1965/2015 (Pop)

 Статистика раздачи 
Размер: 661.99 МБ   |  Зарегистрирован: 24 мар 2017, 19:46   |   .torrent скачан: 0 раз
Сидеров: 0  [ 0 байт/сек ]     Личеров: 0  [ 0 байт/сек ]  
  
Аватара пользователя
Главный редактор
Главный редактор
 
Раздал: 90.01 ТБ
Скачал: 3.78 ТБ
Ратио: 24.248
Сообщения: 274898
Стаж: 9 лет 1 месяц 21 день
Откуда: Санкт-Петербург

Alex Hassilev - Affairs Of The Heart
Формат записи/Источник записи: [TR24][OF]
Наличие водяных знаков: Нет
Год издания/переиздания диска: 1965/2015
Жанр: Pop
Издатель (лейбл): Legacy
Продолжительность: 30:52
Наличие сканов в содержимом раздачи: Только обложка альбома
Треклист:
01. Young Man (2:23)
02. Chove Chuva (2:18)
03. Dear Love (from the musical "Flora, The Red Menace") (2:30)
04. Songs Of The Seasons (2:45)
05. Where Are The Snows (2:59)
06. How Much Will I Love You (2:43)
07. Now And Then (from the film "The Yellow Rolls-Royce") (3:03)
08. Man, Oh Man (from the film "The Luck Of Ginger Coffey") (2:11)
09. A Girl (2:33)
10. Ships Of Fools (from the film "Ship Of Fools") (2:30)
11. The Blue Dove (2:20)
12. My Time Will Come (from the musical "Our Man Crichton") (2:37)
 
Alex Hassilev is one of the founding members of the group The Limeliters. He is an actor with a number of film and television appearances to his credit. He is also a musician, switching from the guitar to the banjo. When the Limeliters first broke up at the height of their fame in 1963, Alex Hassilev turned to acting and operating a recording studio in his home, producing records for a variety of other artists.

Контейнер: FLAC (*.flac)
Тип рипа: tracks
Разрядность: 24/96
Количество каналов: 2.0
Код: Выделить всё
foobar2000 1.3.9 / Dynamic Range Meter 1.1.1
log date: 2017-03-24 22:34:38
--------------------------------------------------------------------------------
Analyzed: Alex Hassilev / Affairs Of The Heart
--------------------------------------------------------------------------------
DR         Peak         RMS     Duration Track
--------------------------------------------------------------------------------
DR11      -0.92 dB   -14.78 dB      2:23 01-Young Man
DR10       0.00 dB   -13.38 dB      2:18 02-Chove Chuva
DR10      -2.59 dB   -15.16 dB      2:30 03-Dear Love (from the musical "Flora, The Red Menace")
DR10      -1.11 dB   -14.13 dB      2:45 04-Songs Of The Seasons
DR10      -1.72 dB   -15.05 dB      2:59 05-Where Are The Snows
DR10      -1.24 dB   -14.74 dB      2:43 06-How Much Will I Love You
DR10      -2.17 dB   -14.77 dB      3:03 07-Now And Then (from the film "The Yellow Rolls-Royce")
DR12      -0.59 dB   -15.26 dB      2:11 08-Man, Oh Man (from the film "The Luck Of Ginger Coffey")
DR11      -2.46 dB   -17.00 dB      2:33 09-A Girl
DR9       -0.29 dB   -12.73 dB      2:30 10-Ships Of Fools (from the film "Ship Of Fools")
DR11      -1.78 dB   -15.45 dB      2:20 11-The Blue Dove
DR10      -0.51 dB   -13.71 dB      2:37 12-My Time Will Come (from the musical "Our Man Crichton")
--------------------------------------------------------------------------------
Number of tracks:  12
Official DR value: DR10
Samplerate:        96000 Hz
Channels:          2
Bits per sample:   24
Bitrate:           3076 kbps
Codec:             FLAC
================================================================================
Источник: acousticsounds.com[/spoiler]
Не забывайте говорить Спасибо. Не уходите с раздачи!   
Торрент: Зарегистрирован [24 мар 2017, 19:46]
Статус:
Проверен
 
.torrent скачан: 0 раз
Хэш: d1f9a78caa271f8e76ed86296cce8efd72fffe31
Размер: 661.99 МБ (694 146 300 байт)
   Стать Автором раздачи
   
Цитата
  • Похожие торренты
    Ответы
    Просмотры
    Последнее сообщение

Вернуться в Поп-музыка (Hi-Res stereo)

Кто сейчас на конференции

Сейчас эту тему просматривают: нет зарегистрированных пользователей и гости: 1