[TR24][OF] Louane - Chambre 12 - 2015 (Pop)

 Статистика раздачи 
Размер: 682.45 МБ   |  Зарегистрирован: 24 авг 2015, 21:04   |   .torrent скачан: 0 раз
Сидеров: 0  [ 0 байт/сек ]     Личеров: 0  [ 0 байт/сек ]  
  
Аватара пользователя
Главный редактор
Главный редактор
 
Раздал: 90.01 ТБ
Скачал: 3.78 ТБ
Ратио: 24.248
Сообщения: 274187
Стаж: 9 лет 1 месяц 18 дней
Откуда: Санкт-Петербург
СообщениеДобавлено: 24 авг 2015, 21:04


Louane - Chambre 12
Формат записи/Источник записи: [TR24][OF]
Год издания диска: 2015
Жанр: Pop
Издатель(лейбл): Mercury Records
Продолжительность: 01:02:20
Наличие сканов в содержимом раздачи: front
Треклист:
01. Jour 1
02. Avenir (Radio Edit)
03. Maman
04. Jeune
05. Tourne
06. Chambre 12
07. Tranquille
08. Alien
09. Nous
10. Du courage
11. La fuite
12. Je vole
13. La mère à Titi
14. Avenir
15. Jeune (Radio Edit)
16. Chambre 12 (Radio Edit)
17. Tourne (Radio Edit)
18. Maman (Radio Edit)
Контейнер: FLAC (*.flac)
Тип рипа: 24bit/44,1kHz stereo tracks
Формат: PCM
Код: Выделить всё
foobar2000 1.3.8 / Dynamic Range Meter 1.1.1
log date: 2015-08-24 17:51:53
--------------------------------------------------------------------------------
Analyzed: Louane / Chambre 12
--------------------------------------------------------------------------------
DR         Peak         RMS     Duration Track
--------------------------------------------------------------------------------
DR5       -1.71 dB   -10.14 dB      3:37 01-Jour 1
DR7       -2.99 dB   -12.07 dB      3:05 02-Avenir (Radio Edit)
DR7       -3.35 dB   -13.29 dB      2:43 03-Maman
DR7        0.00 dB   -11.25 dB      3:35 04-Jeune
DR8       -0.62 dB   -12.29 dB      3:43 05-Tourne
DR7       -0.64 dB   -11.81 dB      4:05 06-Chambre 12
DR7       -1.39 dB   -11.91 dB      3:51 07-Tranquille
DR6       -1.89 dB   -10.46 dB      3:41 08-Alien
DR7       -0.53 dB   -11.03 dB      3:50 09-Nous
DR9       -1.23 dB   -12.32 dB      3:10 10-Du courage
DR9       -2.02 dB   -14.84 dB      3:11 11-La fuite
DR12      -1.57 dB   -17.68 dB      3:36 12-Je vole
DR6       -4.62 dB   -12.51 dB      4:13 13-La mГЁre Г  Titi
DR8       -0.82 dB   -11.18 dB      3:17 14-Avenir
DR9       -1.76 dB   -12.87 dB      3:04 15-Jeune (Radio Edit)
DR8       -1.70 dB   -13.42 dB      3:19 16-Chambre 12 (Radio Edit)
DR8       -1.31 dB   -12.73 dB      3:37 17-Tourne (Radio Edit)
DR9       -2.54 dB   -14.34 dB      2:52 18-Maman (Radio Edit)
--------------------------------------------------------------------------------
Number of tracks:  18
Official DR value: DR8
Samplerate:        44100 Hz
Channels:          2
Bits per sample:   24
Bitrate:           1569 kbps
Codec:             FLAC
================================================================================
Не забывайте говорить Спасибо. Не уходите с раздачи!   
Торрент: Зарегистрирован [24 авг 2015, 21:04]
Статус:
Проверен
 
.torrent скачан: 0 раз
Хэш: 83146d9ec79ab31fd7a22b70228120fc68250f93
Размер: 682.45 МБ (715 596 467 байт)
   Стать Автором раздачи
   
Цитата
  • Похожие торренты
    Ответы
    Просмотры
    Последнее сообщение

Вернуться в Поп-музыка (Hi-Res stereo)

Кто сейчас на конференции

Сейчас эту тему просматривают: нет зарегистрированных пользователей и гости: 1