[TR24][OF] Axelle Red - The Songs (Acoustic) - 2016 (French Pop, Chanson)

 Статистика раздачи 
Размер: 1.87 ГБ   |  Зарегистрирован: 11 июн 2018, 12:33   |   .torrent скачан: 0 раз
Сидеров: 0  [ 0 байт/сек ]     Личеров: 0  [ 0 байт/сек ]  
  
Аватара пользователя
Главный редактор
Главный редактор
 
Раздал: 90.01 ТБ
Скачал: 3.78 ТБ
Ратио: 24.248
Сообщения: 273485
Стаж: 9 лет 1 месяц 10 дней
Откуда: Санкт-Петербург

AXELLE RED
The Songs (Acoustic)

Формат записи/Источник записи: [TR24][OF]
Наличие водяных знаков: Нет
Год издания: 2016
Жанр: French Pop, Chanson
Издатель (лейбл): Tracks 2015
Продолжительность: 01:30:17
Наличие сканов в содержимом раздачи: Только обложка альбома
Контейнер: FLAC (*.flac)
Тип рипа: tracks
Разрядность: 24/96
Формат: PCM
Количество каналов: 2.0
Источник (релизер): qobuz.com
Треклист:
01. Venez vers moi
02. La claque
03. Romantique
04. Si tu savais
05. Amour profond
06. Présidente
07. Temps pour nous
08. Ce matin
09. Jure
10. Parce que c'est toi
11. Je me fâche
12. C'est une ville
13. Le monde tourne mal
14. Je t'attends
15. Toujours
16. Naïve
17. Ma prière
18. Rester femme
19. Quelque part ailleurs
20. Sensualité
21. A tâtons
22. Mon café
23. Rouge ardent
24. Il y en a
Код: Выделить всё
foobar2000 1.3.17 / Замер динамического диапазона (DR) 1.1.1
Дата отчёта:  2018-06-08 21:58:34
--------------------------------------------------------------------------------
Анализ:   Axelle Red / The Songs (Acoustic)
--------------------------------------------------------------------------------
DR         Пики         RMS           Продолжительность трека
--------------------------------------------------------------------------------
DR8       -0.40 дБ   -10.88 дБ      3:38 01-Venez vers moi
DR8       -0.40 дБ   -10.37 дБ      4:19 02-La claque
DR10      -0.40 дБ   -11.92 дБ      3:16 03-Romantique
DR11      -0.40 дБ   -14.29 дБ      3:39 04-Si tu savais
DR8       -0.40 дБ   -10.52 дБ      3:56 05-Amour profond
DR8       -0.40 дБ   -10.78 дБ      3:59 06-Présidente
DR10      -0.40 дБ   -13.28 дБ      3:26 07-Temps pour nous
DR10      -0.40 дБ   -12.49 дБ      2:39 08-Ce matin
DR9       -0.40 дБ   -11.94 дБ      3:03 09-Jure
DR10      -0.40 дБ   -13.31 дБ      3:17 10-Parce que c'est toi
DR9       -0.40 дБ   -12.57 дБ      4:47 11-Je me fâche
DR9       -0.40 дБ   -11.76 дБ      3:48 12-C'est une ville
DR10      -0.40 дБ   -12.48 дБ      4:45 13-Le monde tourne mal
DR12      -0.40 дБ   -14.42 дБ      3:13 14-Je t'attends
DR12      -0.40 дБ   -15.79 дБ      3:55 15-Toujours
DR9       -0.40 дБ   -11.12 дБ      3:40 16-Naïve
DR9       -0.40 дБ   -11.79 дБ      3:40 17-Ma prière
DR11      -0.40 дБ   -14.18 дБ      4:57 18-Rester femme
DR9       -0.40 дБ   -12.45 дБ      3:28 19-Quelque part ailleurs
DR10      -0.40 дБ   -11.50 дБ      3:52 20-Sensualité
DR9       -0.40 дБ   -11.48 дБ      3:34 21-A tâtons
DR11      -0.40 дБ   -14.12 дБ      4:05 22-Mon café
DR10      -0.40 дБ   -13.73 дБ      4:07 23-Rouge ardent
DR7       -0.70 дБ    -9.45 дБ      3:24 24-Il y en a
--------------------------------------------------------------------------------
Количество треков: 24
Реальные значения DR: DR10
Частота:  96000 Гц
Каналов:  2
Разрядность:   24
Битрейт:  2959 кбит/с
Кодек:   FLAC
================================================================================
Diva européenne de la pop Axelle Red le 15 février 1968, est née sous le nom de Fabienne Demal.
Demal a grandi dans un univers bilingue, parlant français et néerlandais. Fan de musique américaine pop et R&B, elle a été découverte par un découvreur de talent à l'âge de 15 ans et elle a été invitée à enregistrer un single "Little Girls". La chanson est devenue un hit national, transformant Axelle Red en une star instantanément. Bien qu'elle ait aussi étudié le droit et l’art dramatique, en 1988 elle s’est entièrement tournée vers sa carrière musicale, elle a également fait jouer sa considérable réputation de star pour soutenir différentes causes humanitaires dans le monde entier.
Не забывайте говорить Спасибо. Не уходите с раздачи!   
Торрент: Зарегистрирован [11 июн 2018, 12:33]
Статус:
Проверен
 
.torrent скачан: 0 раз
Хэш: a61581780dbbe35c86cdce3bbf7942050e7b3847
Размер: 1.87 ГБ (2 003 369 468 байт)
   Стать Автором раздачи
   
Цитата

Вернуться в Поп-музыка (Hi-Res stereo)

Кто сейчас на конференции

Сейчас эту тему просматривают: нет зарегистрированных пользователей и гости: 1