[TR24][OF] Michel Berger - Double Jeu - 1992/2016 (French Pop)

 Статистика раздачи 
Размер: 1.03 ГБ   |  Зарегистрирован: 22 янв 2018, 11:12   |   .torrent скачан: 0 раз
Сидеров: 0  [ 0 байт/сек ]     Личеров: 0  [ 0 байт/сек ]  
  
Аватара пользователя
Главный редактор
Главный редактор
Я на сайте
 
Раздал: 90.01 ТБ
Скачал: 3.78 ТБ
Ратио: 24.248
Сообщения: 273586
Стаж: 9 лет 1 месяц 11 дней
Откуда: Санкт-Петербург
СообщениеДобавлено: 22 янв 2018, 11:12


Michel Berger - Double Jeu
Формат записи/Источник записи: [TR24][OF]
Наличие водяных знаков: Нет
Год издания/переиздания диска: 1992/2016
Жанр: French Pop
Издатель (лейбл): WM France
Продолжительность: 48:50
Наличие сканов в содержимом раздачи: Только обложка альбома
Треклист:
01. Laissez Passer Les Rêves (6:39)
02. Bats Toi (5:18)
03. Superficiel Et Léger (5:45)
04. La Petite De Calmette (4:20)
05. Toi Sinon Personne (4:50)
06. La Lettre (3:55)
07. La Chanson De La Négresse Blonde (3:44)
08. Les Couloirs Des Halles (4:21)
09. Les Elans Du Coeur (4:48)
10. Jamais partir (5:11) 

Контейнер: FLAC (*.flac)
Тип рипа: tracks
Разрядность: 24/96
Формат: PCM
Количество каналов: 2.0
Код: Выделить всё
foobar2000 1.3.9 / Dynamic Range Meter 1.1.1
log date: 2018-01-22 14:01:44
--------------------------------------------------------------------------------
Analyzed: Michel Berger / Double Jeu
--------------------------------------------------------------------------------
DR         Peak         RMS     Duration Track
--------------------------------------------------------------------------------
DR8       -0.40 dB    -9.34 dB      6:39 01-Laissez Passer Les Rêves
DR9       -0.40 dB   -11.15 dB      5:18 02-Bats Toi
DR9       -0.37 dB   -11.40 dB      5:45 03-Superficiel Et Léger
DR8       -0.40 dB   -10.26 dB      4:20 04-La Petite De Calmette
DR7       -0.40 dB    -8.78 dB      4:50 05-Toi Sinon Personne
DR10      -0.40 dB   -12.79 dB      3:55 06-La Lettre
DR10      -0.40 dB   -10.71 dB      3:44 07-La Chanson De La Négresse Blonde
DR9       -0.40 dB   -11.47 dB      4:21 08-Les Couloirs Des Halles
DR9       -0.40 dB   -11.86 dB      4:48 09-Les Elans Du Coeur
DR10      -0.40 dB   -12.80 dB      5:11 10-Jamais partir
--------------------------------------------------------------------------------
Number of tracks:  10
Official DR value: DR9
Samplerate:        96000 Hz
Channels:          2
Bits per sample:   24
Bitrate:           2964 kbps
Codec:             FLAC
================================================================================
Источник: 7digital.com[/spoiler]
Не забывайте говорить Спасибо. Не уходите с раздачи!   
Торрент: Зарегистрирован [22 янв 2018, 11:12]
Статус:
Проверен
 
.torrent скачан: 0 раз
Хэш: 6297d4823ed11cb8c54fb174443ba056da622517
Размер: 1.03 ГБ (1 101 280 897 байт)
   Стать Автором раздачи
   
Цитата
  • Похожие торренты
    Ответы
    Просмотры
    Последнее сообщение

Вернуться в Поп-музыка (Hi-Res stereo)

Кто сейчас на конференции

Сейчас эту тему просматривают: нет зарегистрированных пользователей и гости: 1