[TR24][OF] Sergio Franchi - The Songs Of Richard Rodgers - 1965/2015 (Pop, Vocal)

 Статистика раздачи 
Размер: 731.22 МБ   |  Зарегистрирован: 24 май 2017, 17:29   |   .torrent скачан: 0 раз
Сидеров: 0  [ 0 байт/сек ]     Личеров: 0  [ 0 байт/сек ]  
  
Аватара пользователя
Главный редактор
Главный редактор
Я на сайте
 
Раздал: 90.01 ТБ
Скачал: 3.78 ТБ
Ратио: 24.248
Сообщения: 273585
Стаж: 9 лет 1 месяц 11 дней
Откуда: Санкт-Петербург

Sergio Franchi - The Songs Of Richard Rodgers
Формат записи/Источник записи: [TR24][OF]
Наличие водяных знаков: Нет
Год издания/переиздания диска: 1965/2015
Жанр: Pop, Vocal
Издатель (лейбл): RCA/Legacy
Продолжительность: 33:10
Наличие сканов в содержимом раздачи: Только обложка альбома
Треклист:
01. If I Loved You (3:15)
02. Bali Ha'i (2:39)
03. People Will Say We're In Love (2:18)
04. Spring Is Here (2:47)
05. This Nearly Was Mine (2:58)
06. My Funny Valentine (3:40)
07. Someone Like You (2:32)
08. Falling In Love With Love (1:58)
09. My Romance (2:40)
10. I Didn't Know What Time It Was (2:20)
11. Blue Moon (3:04)
12. My Heart Stood Still (3:00) 

Контейнер: FLAC (*.flac)
Тип рипа: tracks
Разрядность: 24/96
Количество каналов: 2.0
Код: Выделить всё
foobar2000 1.3.9 / Dynamic Range Meter 1.1.1
log date: 2017-05-24 19:54:30
--------------------------------------------------------------------------------
Analyzed: Sergio Franchi / The Songs Of Richard Rodgers
--------------------------------------------------------------------------------
DR         Peak         RMS     Duration Track
--------------------------------------------------------------------------------
DR9       -1.56 dB   -13.93 dB      3:15 01-If I Loved You
DR9       -0.98 dB   -12.44 dB      2:39 02-Bali Ha'i
DR11      -0.53 dB   -14.80 dB      2:18 03-People Will Say We're In Love
DR8       -1.80 dB   -13.65 dB      2:47 04-Spring Is Here
DR9       -0.61 dB   -13.47 dB      2:58 05-This Nearly Was Mine
DR9       -0.15 dB   -14.39 dB      3:40 06-My Funny Valentine
DR9       -2.00 dB   -14.39 dB      2:32 07-Someone Like You
DR10      -0.21 dB   -12.84 dB      1:58 08-Falling In Love With Love
DR10      -1.84 dB   -14.54 dB      2:40 09-My Romance
DR9       -1.21 dB   -13.63 dB      2:20 10-I Didn't Know What Time It Was
DR11      -0.95 dB   -14.62 dB      3:04 11-Blue Moon
DR10      -1.47 dB   -15.24 dB      3:00 12-My Heart Stood Still
--------------------------------------------------------------------------------
Number of tracks:  12
Official DR value: DR10
Samplerate:        96000 Hz
Channels:          2
Bits per sample:   24
Bitrate:           3038 kbps
Codec:             FLAC
================================================================================
Источник: hdtracks.com[/spoiler]
Не забывайте говорить Спасибо. Не уходите с раздачи!   
Торрент: Зарегистрирован [24 май 2017, 17:29]
Статус:
Проверен
 
.torrent скачан: 0 раз
Хэш: 11d02ebfac04006927f2e2c805847b6a4e15d22a
Размер: 731.22 МБ (766 734 992 байт)
   Стать Автором раздачи
   
Цитата
  • Похожие торренты
    Ответы
    Просмотры
    Последнее сообщение

Вернуться в Поп-музыка (Hi-Res stereo)

Кто сейчас на конференции

Сейчас эту тему просматривают: нет зарегистрированных пользователей и гости: 1