[SACD-R][OF] Japan - Gentlemen Take Polaroids - 1980/2016 (Avant-pop; synthpop)

 Статистика раздачи 
Размер: 2.38 ГБ   |  Зарегистрирован: 17 мар 2017, 11:46   |   .torrent скачан: 0 раз
Сидеров: 0  [ 0 байт/сек ]     Личеров: 0  [ 0 байт/сек ]  
  
Аватара пользователя
Главный редактор
Главный редактор
Я на сайте
 
Раздал: 90.01 ТБ
Скачал: 3.78 ТБ
Ратио: 24.248
Сообщения: 274792
Стаж: 9 лет 1 месяц 19 дней
Откуда: Санкт-Петербург

Japan / Gentlemen Take Polaroids
Формат записи/Источник записи: [SACD-R][OF]
Наличие водяных знаков: Нет
Год издания/переиздания диска: 1980/2016
Жанр: Avant-pop; synthpop
Издатель (лейбл): Vigin / Universal Music Hong Kong
Продолжительность: 00:59:05
Наличие сканов в содержимом раздачи: Да (сканы)
Треклист:
1. Gentlemen Take Polaroids 07:08
2. Swing 06:26
3. Burning Bridges 05:23
4. My New Career 03:55
5. Methods Of Dance 06:55
6. Ain’t That Peculiar 04:41
7. Nightporter 06:59
8. Taking Islands In Africa 05:21
9. The Experience Of Swimming 04:05
10. The Width Of A Room 03:15
11. Taking Islands In Africa – Steve Nye Remix 04:57
Контейнер: ISO (*.iso)
Тип рипа: image
Разрядность: 64(2,8 MHz/1 Bit)
Формат: DSD
Количество каналов: 2.0
Код: Выделить всё
foobar2000 1.3.13 / Замер динамического диапазона (DR) 1.1.1
Дата отчёта:  2017-03-17 14:37:40
--------------------------------------------------------------------------------
Анализ:   Japan / Gentlemen Take Polaroids
--------------------------------------------------------------------------------
DR         Пики         RMS           Продолжительность трека
--------------------------------------------------------------------------------
DR8        0.00 дБ    -9.43 дБ      7:08 01-Gentlemen Take Polaroids
DR11       0.00 дБ   -12.52 дБ      6:26 02-Swing
DR11      -0.08 дБ   -14.29 дБ      5:23 03-Burning Bridges
DR10       0.00 дБ   -11.32 дБ      3:55 04-My New Career
DR8        0.00 дБ    -9.62 дБ      6:55 05-Methods Of Dance
DR9        0.00 дБ   -10.60 дБ      4:41 06-Ain't That Peculiar
DR11      -0.08 дБ   -15.07 дБ      6:59 07-Nightporter
DR9        0.00 дБ   -10.78 дБ      5:21 08-Taking Islands In Africa
DR13      -0.09 дБ   -15.09 дБ      4:05 09-The Experience Of Swimming
DR9       -3.21 дБ   -14.21 дБ      3:15 10-The Width Of A Room
DR10       0.00 дБ   -11.30 дБ      4:57 11-Taking Islands In Africa - Steve Nye Remix
--------------------------------------------------------------------------------
Количество треков: 11
Реальные значения DR: DR10
Частота:   2822400 Гц / Частота PCM: 88200 Гц
Каналов:   2
Разрядность:   24
Битрейт:   5645 кбит/с
Кодек:   DSD64
================================================================================
Доп. информация: Released 24 October 1980
Recorded 1980 @ AIR Studios and Townhouse Studios, London, England
Universal Music Hong Kong 5373701
Producer John Punter
The ISO image is created using sacd-ripper for PS3 version 0.21.
Источник (релизер): pssacd (PS³SACD)
https://www.hraudio.net/showmusic.php?title=12014
Gentlemen Take Polaroids is the fourth studio album by the English band Japan, released on 24 October 1980 by record label Virgin.
All Music Review
The last album with Rob Dean, Gentlemen Take Polaroids was also unquestionably the album in which Japan truly found its own unique voice and aesthetic approach. The glam influences still hung heavy, particularly from Roxy Music, but now the band found itself starting to affect others in turn. Even the back cover photo says as much — looking cool in glossy, elegant nightwear, the quintet had a clear impact on Duran Duran, to the point where Nick Rhodes obviously was trying to be Sylvian in appearance. Musically, meanwhile, the swooning, hyper elegant Euro-disco sheen of Quiet Life was polished to an even finer edge throughout, the title track and the obvious descendant of “Quiet Life” itself, “Methods of Dance,” in particular sheer standouts. Sylvian’s sighing, luscious croon is in full effect on both, and the arrangements are astonishing, Karn’s fretless purring between Jansen’s crisp, inventive, and varied drumming, Barbieri’s icy keyboards filling out the corners. What makes Gentlemen Take Polaroids even more of a success is how the group, having reached such a polished peak, kept driving behind it, transforming their exquisite pop into something even more artistic and unique. “Swing,” in particular, is an astounding showcase for the Karn/Jansen team; snaky funk at once dramatic and precisely chilled, brass section blasts adding just enough wry, precise sleaze, Sylvian delivering with focus and intensity while not raising his voice at all. “Nightporter,” meanwhile, is a hyper ballad and then some; a slow-paced semi-waltz with Barbieri’s piano taking the lead throughout with wonderful results. Further hints of the future come with the album closing “Taking Islands In Africa,” which Sylvian co-wrote with future regular collaborator Ryuchi Sakamato, and which wraps up the whole experience with a gliding, supple grace.
Не забывайте говорить Спасибо. Не уходите с раздачи!   
Торрент: Зарегистрирован [17 мар 2017, 11:46]
Статус:
Проверен
 
.torrent скачан: 0 раз
Хэш: 8a68749bafc6ebe05c720d61eb5351e133eee02a
Размер: 2.38 ГБ (2 553 085 273 байт)
   Стать Автором раздачи
   
Цитата
  • Похожие торренты
    Ответы
    Просмотры
    Последнее сообщение

Вернуться в Поп-музыка (Hi-Res stereo)

Кто сейчас на конференции

Сейчас эту тему просматривают: нет зарегистрированных пользователей и гости: 1