[TR24][OF] Hilary Duff - Breathe In. Breathe Out. - 2015 (Dance-pop, EDM, Folk-pop)

 Статистика раздачи 
Размер: 522.97 МБ   |  Зарегистрирован: 02 июл 2015, 14:10   |   .torrent скачан: 0 раз
Сидеров: 0  [ 0 байт/сек ]     Личеров: 0  [ 0 байт/сек ]  
  
Аватара пользователя
Главный редактор
Главный редактор
 
Раздал: 90.01 ТБ
Скачал: 3.78 ТБ
Ратио: 24.248
Сообщения: 274106
Стаж: 9 лет 1 месяц 17 дней
Откуда: Санкт-Петербург

Hilary Duff
Breathe In. Breathe Out.

Год издания: 2015
Жанр: Dance-pop, EDM, Folk-pop
Издатель: RCA Records
Продолжительность: 00:42:18
Релизер: error404
Наличие сканов: Sleeve


01. Sparks (3:06)
02. My Kind (3:27)
03. One In A Million (3:45)
04. Confetti (3:49)
05. Breathe In. Breathe Out. (3:33)
06. Lies (3:36)
07. Arms Around A Memory (3:17)
08. Stay In Love (3:34)
09. Brave Heart (3:33)
10. Tattoo (3:28)
11. Picture This (3:22)
12. Night Like This (3:46)


Контейнер: FLAC (*.flac)
Тип рипа: tracks
Разрядность: 24bit / 44.1kHz
Количество каналов: 2.0

Breathe In. Breathe Out. is the fifth studio album by American singer Hilary Duff. It was released on June 12, 2015 by RCA Records.
Код: Выделить всё
foobar2000 1.3.8 / Dynamic Range Meter 1.1.1
log date: 2015-07-02 16:31:34
--------------------------------------------------------------------------------
Analyzed: Hilary Duff / Breathe In. Breathe Out.
--------------------------------------------------------------------------------
DR         Peak         RMS     Duration Track
--------------------------------------------------------------------------------
DR5       -0.01 dB    -7.30 dB      3:06 01-Sparks
DR5       -0.01 dB    -7.09 dB      3:27 02-My Kind
DR5       -0.01 dB    -8.20 dB      3:45 03-One In A Million
DR6       -0.01 dB    -7.22 dB      3:49 04-Confetti
DR6       -0.01 dB    -9.01 dB      3:33 05-Breathe In. Breathe Out.
DR6       -0.01 dB    -8.50 dB      3:36 06-Lies
DR6       -0.20 dB    -8.66 dB      3:17 07-Arms Around A Memory
DR5       -0.01 dB    -6.14 dB      3:34 08-Stay In Love
DR6       -0.01 dB    -7.90 dB      3:33 09-Brave Heart
DR6        0.00 dB    -7.82 dB      3:28 10-Tattoo
DR5       -0.01 dB    -7.37 dB      3:22 11-Picture This
DR7       -0.01 dB    -8.78 dB      3:46 12-Night Like This
--------------------------------------------------------------------------------
Number of tracks:  12
Official DR value: DR6
Samplerate:        44100 Hz
Channels:          2
Bits per sample:   24
Bitrate:           1633 kbps
Codec:             FLAC
================================================================================
При скачивании, если необходимо, переименуйте папку, в которой будет находиться альбом
Большая просьба к скачавшим поддерживать раздачу! Помогайте другим, ведь вам тоже может понадобиться помощь!
Не забываем говорить "Спасибо"!
Комментарии приветствуются!
[/spoiler]
Не забывайте говорить Спасибо. Не уходите с раздачи!   
Торрент: Зарегистрирован [02 июл 2015, 14:10]
Статус:
Проверен
 
.torrent скачан: 0 раз
Хэш: 469c244133b6cfec74341d3493e31709c7e005f3
Размер: 522.97 МБ (548 374 208 байт)
   Стать Автором раздачи
   
Цитата
  • Похожие торренты
    Ответы
    Просмотры
    Последнее сообщение

Вернуться в Поп-музыка (Hi-Res stereo)

Кто сейчас на конференции

Сейчас эту тему просматривают: нет зарегистрированных пользователей и гости: 1