[TR24][OF] Shania Twain - The Woman In Me - 1995/2017 (Pop, Country)

 Статистика раздачи 
Размер: 1000.36 МБ   |  Зарегистрирован: 10 дек 2017, 20:54   |   .torrent скачан: 0 раз
Сидеров: 0  [ 0 байт/сек ]     Личеров: 0  [ 0 байт/сек ]  
  
Аватара пользователя
Главный редактор
Главный редактор
Я на сайте
 
Раздал: 90.01 ТБ
Скачал: 3.78 ТБ
Ратио: 24.248
Сообщения: 273585
Стаж: 9 лет 1 месяц 11 дней
Откуда: Санкт-Петербург

Shania Twain - The Woman In Me
Формат записи/Источник записи: [TR24][OF]
Наличие водяных знаков: Нет
Год издания/переиздания диска: 1995/2017
Жанр: Pop, Country
Издатель (лейбл): Mercury Nashville
Продолжительность: 48:12
Наличие сканов в содержимом раздачи: Только обложка альбома
Треклист:
01. Home Ain't Where His Heart Is (Anymore) (4:12)
02. Any Man Of Mine (4:07)
03. Whose Bed Have Your Boots Been Under? (4:25)
04. (If You're Not In It For Love) I'm Outta Here! (4:30)
05. The Woman In Me (Needs The Man In You) (4:50)
06. Is There Life After Love? (4:39)
07. If It Don't Take Two (3:40)
08. You Win My Love (4:26)
09. Raining On Our Love (4:38)
10. Leaving Is The Only Way Out (4:07)
11. No One Needs To Know (3:07)
12. God Bless The Child (1:31)
 
"The Woman in Me" is the second studio album by Canadian country singer Shania Twain and her first with the majority of the songs co-written by her. Released in February 1995, it went on to become her biggest-selling recording at the time of its release, selling 4 million copies by the end of the year, and was eventually certified 12× Platinum by the RIAA on December 1, 2000, representing 12 million shipments throughout the United States, and 20 million copies worldwide. It was ranked #8 on CMT's list of 40 Greatest Albums in Country Music in 2006. The album won a 1996 Grammy Award for Best Country Album. "Any Man Of Mine" was nominated for Grammys for Best Female Country Vocal Performance and Best Country Song. Shania Twain was nominated for the Grammy for Best New Artist.
Sometimes, all it takes for a singer to break it big is to have the right collaborator and nowhere is that truth more evident than with Shania Twain. After years of independent local releases and demo records, she released an OK major-label debut on Mercury in 1993 – a record that was perfectly fine but not all that memorable. Not long after that, her path crossed with Robert John "Mutt" Lange's, the producer behind some of the greatest albums in hard rock history, including AC/DC's Back in Black and Def Leppard's Hysteria. Based on that, Lange didn't seem like an ideal match for Twain, but they turned out to be expertly matched collaborators – and romantic partners, too; they married as they were working on the material that became her second album, The Woman in Me. Together, they totally reworked Twain, turning her into a bold, brassy, sexy, sassy modern woman, singing songs that play like tongue-in-cheek empowerment anthems even when they're about heartbreak. She demands that "Any man of mine/better walk the line," tells a poor sap that "(If You're Not in It for Love) I'm Outta Here!" and when she confronts her lover asking "Whose Bed Have Your Boots Been Under?" it sounds like a threat, not a lament. All these songs are painted in big, broad strokes and Lange uses all the arena-filling tricks he's learned from Def Leppard, giving these steady rhythms and melodic hooks that are crushed only by the mammoth choruses which drill their way into permanent memory upon the first listen. That's not to say that The Woman in Me is nothing but heavy-handed pop/rockers dressed as country tunes – they are good at ballads like the title song, but they're even more impressive on "No One Needs to Know," as swinging slice of neo- Bakersfield country so good you'd swear that Dwight Yoakam is singing harmony. And that speaks to the skill of Lange as a producer – this is surely pop influenced, but he doesn't push it too far, for no matter how many rock tricks are in the production or how poppy the tunes are, they still feel like country songs, especially on "Any Man of Mine" and "Whose Bed Have Your Boots Been Under?" anthems for the post-"Boot Scootin' Boogie" era, when country slowly, steadily became the sound of middle-American adult pop. Garth Brooks started the ball rolling, but this is where the movement gained momentum, and although this isn't pure country, it is country in how it sounds and feels, particularly in how it captures the stance and attitude of the modern women, thanks in no small part to Twain who plays this part to a hilt. And, like all the best Lange productions, it's so exquisitely crafted from the songs to the sound that it's not only an instant pleasure, it's a sustaining one.

Контейнер: FLAC (*.flac)
Тип рипа: tracks
Разрядность: 24/96
Формат: PCM
Количество каналов: 2.0
Код: Выделить всё
foobar2000 1.3.9 / Dynamic Range Meter 1.1.1
log date: 2017-12-10 23:28:06
--------------------------------------------------------------------------------
Analyzed: Shania Twain / The Woman In Me
--------------------------------------------------------------------------------
DR         Peak         RMS     Duration Track
--------------------------------------------------------------------------------
DR8       -0.54 dB   -10.60 dB      4:12 01-Home Ain't Where His Heart Is (Anymore)
DR8       -0.06 dB    -9.36 dB      4:07 02-Any Man Of Mine
DR9        0.00 dB   -10.03 dB      4:25 03-Whose Bed Have Your Boots Been Under?
DR8        0.00 dB    -9.55 dB      4:30 04-(If You're Not In It For Love) I'm Outta Here!
DR7       -0.31 dB   -11.33 dB      4:50 05-The Woman In Me (Needs The Man In You)
DR8       -0.35 dB   -11.15 dB      4:39 06-Is There Life After Love?
DR9        0.00 dB   -10.36 dB      3:40 07-If It Don't Take Two
DR8        0.00 dB    -9.32 dB      4:26 08-You Win My Love
DR7       -0.08 dB   -10.41 dB      4:38 09-Raining On Our Love
DR8       -0.32 dB    -9.77 dB      4:07 10-Leaving Is The Only Way Out
DR8       -0.31 dB   -10.26 dB      3:07 11-No One Needs To Know
DR10      -0.33 dB   -12.72 dB      1:31 12-God Bless The Child
--------------------------------------------------------------------------------
Number of tracks:  12
Official DR value: DR8
Samplerate:        96000 Hz
Channels:          2
Bits per sample:   24
Bitrate:           2561 kbps
Codec:             FLAC
================================================================================
Источник: hdtracks.com[/spoiler]
Не забывайте говорить Спасибо. Не уходите с раздачи!   
Торрент: Зарегистрирован [10 дек 2017, 20:54]
Статус:
Проверен
 
.torrent скачан: 0 раз
Хэш: aef2bf1bc35dc0c56e87618db936a2f5966bf93f
Размер: 1000.36 МБ (1 048 952 121 байт)
   Стать Автором раздачи
   
Цитата
  • Похожие торренты
    Ответы
    Просмотры
    Последнее сообщение

Вернуться в Поп-музыка (Hi-Res stereo)

Кто сейчас на конференции

Сейчас эту тему просматривают: нет зарегистрированных пользователей и гости: 1