[TR24][OF] Tegan and Sara - Love You to Death - 2016 (Pop)

 Статистика раздачи 
Размер: 694.68 МБ   |  Зарегистрирован: 24 фев 2017, 18:33   |   .torrent скачан: 0 раз
Сидеров: 0  [ 0 байт/сек ]     Личеров: 0  [ 0 байт/сек ]  
  
Аватара пользователя
Главный редактор
Главный редактор
 
Раздал: 90.01 ТБ
Скачал: 3.78 ТБ
Ратио: 24.248
Сообщения: 274856
Стаж: 9 лет 1 месяц 20 дней
Откуда: Санкт-Петербург
СообщениеДобавлено: 24 фев 2017, 18:33


Tegan and Sara / Love You to Death
Формат записи/Источник записи: [TR24][OF]
Наличие водяных знаков: Нет
Год издания/переиздания диска: 2016
Жанр: Pop
Издатель(лейбл): Warner Bros. Records
Продолжительность: 31:32
Наличие сканов в содержимом раздачи: Буклет PDF
Треклист:
1. That Girl
2. Faint Of Heart
3. Boyfriend
4. Dying To Know
5. Stop Desire
6. White Knuckles
7. 100x
8. BWU
9. U-Turn
10. Hang On To The Night
Контейнер: FLAC (*.flac)
Тип рипа: tracks
Разрядность: 24/96
Формат: PCM
Количество каналов: 2.0
Код: Выделить всё
foobar2000 1.3.13 / Замер динамического диапазона (DR) 1.1.1
Дата отчёта:  2017-02-24 19:38:26
--------------------------------------------------------------------------------
Анализ:   Tegan And Sara / Love You to Death
--------------------------------------------------------------------------------
DR         Пики         RMS           Продолжительность трека
--------------------------------------------------------------------------------
DR6        0.00 дБ    -7.46 дБ      2:44 01-That Girl
DR5        0.00 дБ    -7.00 дБ      2:55 02-Faint of Heart
DR5        0.00 дБ    -5.93 дБ      2:47 03-Boyfriend
DR6        0.00 дБ    -7.26 дБ      3:37 04-Dying to Know
DR5        0.00 дБ    -6.18 дБ      3:18 05-Stop Desire
DR5        0.00 дБ    -7.53 дБ      3:19 06-White Knuckles
DR6       -0.30 дБ    -8.40 дБ      3:03 07-100x
DR6        0.00 дБ    -7.55 дБ      3:22 08-BWU
DR5        0.00 дБ    -6.55 дБ      2:58 09-U-turn
DR5        0.00 дБ    -7.14 дБ      3:30 10-Hang on to the Night
--------------------------------------------------------------------------------
Количество треков: 10
Реальные значения DR: DR5
Частота:   96000 Гц
Каналов:   2
Разрядность:   24
Битрейт:   3029 кбит/с
Кодек:   FLAC
================================================================================


Источник (релизер):
Не забывайте говорить Спасибо. Не уходите с раздачи!   
Торрент: Зарегистрирован [24 фев 2017, 18:33]
Статус:
Проверен
 
.torrent скачан: 0 раз
Хэш: 313a086e5a2daede7e49f58560ee426ee6dae003
Размер: 694.68 МБ (728 427 464 байт)
   Стать Автором раздачи
   
Цитата
  • Похожие торренты
    Ответы
    Просмотры
    Последнее сообщение

Вернуться в Поп-музыка (Hi-Res stereo)

Кто сейчас на конференции

Сейчас эту тему просматривают: нет зарегистрированных пользователей и гости: 1