[TR24][OF] Samuel - Il codice della bellezza - 2017 (Pop, Electronic)

 Статистика раздачи 
Размер: 572.77 МБ   |  Зарегистрирован: 10 авг 2017, 17:57   |   .torrent скачан: 0 раз
Сидеров: 0  [ 0 байт/сек ]     Личеров: 0  [ 0 байт/сек ]  
  
Аватара пользователя
Главный редактор
Главный редактор
Я на сайте
 
Раздал: 90.01 ТБ
Скачал: 3.78 ТБ
Ратио: 24.248
Сообщения: 274792
Стаж: 9 лет 1 месяц 19 дней
Откуда: Санкт-Петербург

Samuel / Il codice della bellezza
Формат записи/Источник записи: [TR24][OF]
Наличие водяных знаков: Нет
Год издания/переиздания диска: 2017
Жанр: Pop, Electronic
Издатель (лейбл): Columbia
Продолжительность: 00:46:24
Наличие сканов в содержимом раздачи: Front
Источник (релизер): hdtracks
Контейнер: FLAC (*.flac)
Тип рипа: tracks
Разрядность: 24/44,1
Формат: PCM
Количество каналов: 2.0
Треклист:
01. La risposta
02. Vedrai
03. Rabbia
04. Il treno
05. Più di tutto
06. Dea
07. La statua della mia libertà
08. Come una Cenerentola
09. Qualcosa
10. Niente di particolare
11. Voleva un' anima l feat. Lorenzo "Jovanotti" Cherubini
12. La luna piena
13. Passaggio ad un'amica
14. Il codice della bellezza
Код: Выделить всё
foobar2000 1.1.10 / Dynamic Range Meter 1.1.1
log date: 2017-08-10 20:30:54
--------------------------------------------------------------------------------
Analyzed: Samuel feat. Lorenzo "Jovanotti" Cherubini / Il codice della bellezza (1)
          Samuel / Il codice della bellezza (2-14)
--------------------------------------------------------------------------------
DR         Peak         RMS     Duration Track
--------------------------------------------------------------------------------
DR5       -0.69 dB    -7.31 dB      4:12 ?-Voleva un' anima
DR5       -0.76 dB    -7.52 dB      3:22 ?-La risposta
DR4       -0.69 dB    -6.49 dB      3:42 ?-Vedrai
DR4       -0.69 dB    -7.74 dB      3:19 ?-Rabbia
DR5       -0.69 dB    -7.03 dB      3:06 ?-Il treno
DR5       -0.69 dB    -7.51 dB      3:00 ?-Più di tutto
DR5       -0.69 dB    -7.76 dB      3:12 ?-Dea
DR7       -0.69 dB    -8.53 dB      3:06 ?-La statua della mia libertà
DR6       -0.69 dB    -7.98 dB      3:14 ?-Come una Cenerentola
DR4       -0.69 dB    -7.73 dB      4:04 ?-Qualcosa
DR4       -0.69 dB    -6.52 dB      2:32 ?-Niente di particolare
DR5       -0.69 dB    -6.96 dB      3:14 ?-La luna piena
DR5       -0.69 dB    -7.57 dB      2:48 ?-Passaggio ad un'amica
DR3       -0.69 dB    -6.05 dB      3:33 ?-Il codice della bellezza
--------------------------------------------------------------------------------
Number of tracks:  14
Official DR value: DR5
Samplerate:        44100 Hz
Channels:          2
Bits per sample:   24
Bitrate:           1738 kbps
Codec:             FLAC
================================================================================
Не забывайте говорить Спасибо. Не уходите с раздачи!   
Торрент: Зарегистрирован [10 авг 2017, 17:57]
Статус:
Проверен
 
.torrent скачан: 0 раз
Хэш: 58ba5e9ca2581ffef6382a3c3c0c810f009e1869
Размер: 572.77 МБ (600 591 546 байт)
   Стать Автором раздачи
   
Цитата

Вернуться в Поп-музыка (Hi-Res stereo)

Кто сейчас на конференции

Сейчас эту тему просматривают: нет зарегистрированных пользователей и гости: 1